Специалист - CorelDRAW X5/X6. Уровень 1. Создание векторных иллюстраций (2012)

Ответить на тему
 
Автор Сообщение

Yulya ®

-Специалист - CorelDRAW X5/X6. Уровень 1. Создание векторных иллюстраций (2012) - Автор (режиссер): Специалист
Название: CorelDRAW X5/X6. Уровень 1. Создание векторных иллюстраций
Преподаватель: Инна Витальевна Романова
Год выпуска: 2012
Жанр: Видеокурсы
Продолжительность: 30:48:00
Качество видео: HDTVRip
Видеокодек: WMV3
Битрейт видео: 538 - 7471 Кбит/сек
Размер кадра: 1280 x 1024
Аудиокодек: WMA
Битрейт аудио: 48,0 Кбит/сек, 1 Ch, 44,1 КГц
Описание:
На курсе Вы изучите технические возможности одного из наиболее популярных векторных редакторов – CorelDRAW и приобретете необходимые практические навыки профессиональной работы. Курс предназначен для дизайнеров, художников, фотографов, создателей презентаций, веб-дизайнеров и работников препресс – всех, кто связан с задачами представления графической информации.
По окончании курса Вы будете уметь:
Создавать макет открытки, упаковки, этикетки, обложки книги, CD, и т.д.
Разрабатывать фирменный стиль, логотип, макеты визитки и календаря
Создавать рекламные блоки для сувенирной и промышленной продукции
Подготавливать многостраничный макет
Создавать графические элементы для веб-страницы
Подготавливать рисунки, схемы и фоновые шаблоны для презентаций
Создавать текстурные карты для 3D-объектов
Рисовать схемы и чертежи
Подготавливать макет печатной документации
Импортировать и редактировать изображение. Выполнять трассировку.
Экспортировать графическое изображение в другие графические редакторы
Готовить макет к печати

Программа курса:

Модуль 1. Введение в компьютерную графику. Основы работы с программой
Применение компьютерной графики. Графические редакторы. Векторная и растровая графика
Программа CorelDraw X5: состав, особенности, использование в полиграфии и Интернет. Требование к ресурсам компьютера
Настройка программного интерфейса
Способы создания графического изображения в CorelDraw
Объекты. Типы объектов. Создание объектов
Выделение, перемещение и трансформация объектов
Управление масштабом просмотра объектов
Итоговая работа: cоздание графических примитивов
Модуль 2. Навыки работы с объектами
Режимы просмотра документа
Копирование объектов
Группировка объектов
Соединение объектов
Логические операции
Использование менеджера объектов (Object Manager). Слои
Итоговая работа: создание элементов дизайна
Модуль 3. Что такое кривая и как с ней работать
Кривые Безье. Способы создания кривых
Изменение геометрии объекта с помощью инструмента редактирования формы
Разделение объектов с помощью инструмента-ножа
Удаление части объекта с помощью инструмента-ластика
Модификация кривой с помощью инструментов "Shape Tool"
Итоговая работа: создание элементов рекламного блока
Модуль 4. Создание и редактирование кривых
Создание объектов с помощью инструмента "Smart Fill"
Создание и редактирование художественного контура. Использование графического планшета
Использование эффекта "Create Boundary" для создания объекта на основе множества объектов
Трассировка растровых изображений с помощью эффекта "Power Trace"
Итоговая работа: создание этикетки
Модуль 5. Работа с цветом
Природа цвета
Цветовые модели. Простые и составные цвета
Способы окрашивания объектов
Управление прозрачностью объекта
Итоговая работа: создание рекламного блока
Модуль 6. Средства повышенной точности
Использование линеек, сетки и направляющих
Точные преобразования объектов
Выравнивание и распределение объектов
Итоговая работа: создание макета обложки книги
Модуль 7. Разработка фирменного стиля
Планирование макета
Настройка документа
Создание логотипов
Разработка фирменных бланков
Правила оформление визиток
Работа с текстом
Итоговая работа: создание логотипов. Разработка визитки
Модуль 8. Оформление текста
Виды текста: простой и фигурный текст
Фигурный текст. Создание, редактирование, форматирование, предназначение
Импорт текста из офисных приложений
Работа с таблицами
Размещение текста вдоль кривой
Редактирование геометрической формы текста
Простой текст. Создание, редактирование, форматирование, предназначение
Навыки работы с текстовыми блоками
Итоговая работа: создание печатей. Дизайн текста
Модуль 9. Использование спецэффектов
Области применения спецэффектов
Обзор спецэффектов
Практика совмещения векторных и растровых изображений
Итоговая работа: разработка макета упаковки
Модуль 10. Экспорт документа в стандартные графические форматы. Печать документа. Итоговая работа
Планирование и создание макета с использование всех элементов CorelDRAW X5
Форматы векторных и растровых изображений
Экспорт макета в стандартные графические форматы для использования в программе верстки или документе веб
Подготовка макета к печати
Управление цветом
Возможности автоматизации на примере создания календаря
Итоговая работа: разработка упаковки, фирменного стиля, обложки, рекламного блока (по выбору слушателя)

MediaInfo:

Общее
Полное имя : C:\Download\СПЕЦИАЛИСТ - CorelDRAW X5 X6. Уровень 1. Создание векторных иллюстраций [2012]\02.wmv
Формат : Windows Media
Размер файла : 164 Мбайт
Продолжительность : 2 ч. 52 м.
Режим общего битрейта : Переменный
Общий поток : 132 Кбит/сек
Максимальный общий битрейт : 9901 Кбит/сек
Дата кодирования : UTC 2013-05-10 10:24:36.324
Программа кодирования : 5.1 Build 880 / GoToMeeting
BitRateFrom the writer : 125907
Audio samples : 127536
Video samples : 44970
recording time : Пт, 10 май 2013 15:13:39 Московское время (зима)
Видео
Идентификатор : 2
Формат : VC-1
Профиль формата : MP@HL
Идентификатор кодека : WMV3
Идентификатор кодека/Информация : Windows Media Video 9
Идентификатор кодека/Подсказка : WMV3
Описание кодека : Windows Media Video 9
Вид битрейта : Переменный
Битрейт : 538 Кбит/сек
Ширина : 1280 пикселей
Высота : 1024 пикселя
Соотношение сторон : 5:4
Режим частоты кадров : Переменный
Номинальная частота кадров : 29,970 кадров/сек
Цветовое пространство : YUV
Субдискретизация насыщенности : 4:2:0
Битовая глубина : 8 бит
Тип развёртки : Прогрессивная
Метод сжатия : С потерями
Аудио
Идентификатор : 1
Формат : WMA
Версия формата : Version 2
Идентификатор кодека : 161
Идентификатор кодека/Информация : Windows Media Audio
Описание кодека : Windows Media Audio 9.2 - 48 kbps, 44 kHz, mono 1-pass CBR
Продолжительность : 2 ч. 52 м.
Вид битрейта : Постоянный
Битрейт : 48,0 Кбит/сек
Каналы : 1 канал
Частота : 44,1 КГц
Битовая глубина : 16 бит
Размер потока : 59,3 Мбайт (36%)
Общее
Полное имя : C:\Download\СПЕЦИАЛИСТ - CorelDRAW X5 X6. Уровень 1. Создание векторных иллюстраций [2012]\12.wmv
Формат : Windows Media
Размер файла : 39,4 Мбайт
Продолжительность : 54 м.
Режим общего битрейта : Переменный
Общий поток : 102 Кбит/сек
Максимальный общий битрейт : 13,6 Мбит/сек
Дата кодирования : UTC 2013-05-10 14:50:36.357
Программа кодирования : 5.1 Build 880 / GoToMeeting
BitRateFrom the writer : 96379
Audio samples : 39106
Video samples : 633
recording time : Пт, 10 май 2013 18:51:37 Московское время (зима)
Видео
Идентификатор : 2
Формат : VC-1
Профиль формата : MP@HL
Идентификатор кодека : WMV3
Идентификатор кодека/Информация : Windows Media Video 9
Идентификатор кодека/Подсказка : WMV3
Описание кодека : Windows Media Video 9
Продолжительность : 54 м.
Вид битрейта : Переменный
Битрейт : 7471 Кбит/сек
Ширина : 1280 пикселей
Высота : 1024 пикселя
Соотношение сторон : 5:4
Частота кадров : 29,970 кадров/сек
Цветовое пространство : YUV
Субдискретизация насыщенности : 4:2:0
Битовая глубина : 8 бит
Тип развёртки : Прогрессивная
Метод сжатия : С потерями
Бит/(Пиксели*Кадры) : 0.190
Размер потока : 2,83 Гбайт
Аудио
Идентификатор : 1
Формат : WMA
Версия формата : Version 2
Идентификатор кодека : 161
Идентификатор кодека/Информация : Windows Media Audio
Описание кодека : Windows Media Audio 9.2 - 48 kbps, 44 kHz, mono 1-pass CBR
Продолжительность : 54 м.
Вид битрейта : Постоянный
Битрейт : 48,0 Кбит/сек
Каналы : 1 канал
Частота : 44,1 КГц
Битовая глубина : 16 бит
Размер потока : 18,6 Мбайт (47%)
Скачать .torrent

Для того, чтобы скачать торрент-файл

Специалист - CorelDRAW X5/X6. Уровень 1. Создание векторных иллюстраций (2012)

с нашего сайта, Вам необходимо Войти на сайт под своим логином! Если у Вас ещё нет логина, тогда Вам нужно сначала Зарегистрироваться!

Как скачивать? · Что такое торрент? · Рейтинг и ограничения

Показать сообщения:    
Ответить на тему

Специалист - CorelDRAW X5/X6. Уровень 1. Создание векторных иллюстраций (2012) скачать торрент (torrent), видеоуроки, тренинги, обучающее видео и видеокурсы

Текущее время: Сегодня 02:31

Часовой пояс: GMT + 4



Вы не можете начинать темы
Вы не можете отвечать на сообщения
Вы не можете редактировать свои сообщения
Вы не можете удалять свои сообщения
Вы не можете голосовать в опросах
Вы не можете прикреплять файлы к сообщениям
Вы не можете скачивать файлы