Ксения Комендацкая - Азы постобработки фотографий в Lightroom и Photoshop (2012)

Ответить на тему
 
Автор Сообщение

Yulya ®

-Ксения Комендацкая - Азы постобработки фотографий в Lightroom и Photoshop (2012)- Автор (режиссер): Ксения Комендацкая
Название: Азы постобработки фотографий в Lightroom и Photoshop
Год выпуска: 2012
Жанр: Обучающий видеокурс
Продолжительность: 01:21:42
Качество видео: PCRec
Видеокодек: Xvid
Битрейт видео: ~25fps 1431kbps
Размер кадра: 1280x720
Аудиокодек: MP3
Битрейт аудио: 48000Hz stereo 256kbps
Описание:
Данный видеокурс посвящен постобработки фотоснимков в таких программах, как - Lightroom и Photoshop и он предназначен для тех, кто хочет научиться быстро и качественно обрабатывать фотографии, производить цветокоррекцию и воплощать художественные идеи посредством фотообработки.

Содержание видеокурса:

• Краткий обзор рабочего пространства программы Lightroom. Возможности работы с фотографиями raw. Исправление экспозиции, баланса белого, контраста и цветовой насыщенности
• Экспорт изображения в Photoshop. Обзор панели инструментов Photoshop. Секреты работы с действительно полезными для фотографа инструментами. Основы работы со слоями и масками.
• Кадрирование в фотошопе. Маленькие хитрости кадрирования для улучшения ваших снимков.
• Работа с цветом и светотеневым рисунком в Photoshop. Инструменты Dodge и Burn и как их грамотно применять.
• Устранение дефектов кожи.
• Как незаметно удалить нежелательные объекты на заднем плане.
• Повышение резкости на снимке.
• Подготовка фотографии к публикации в интернете.

MI

Общее
Полное имя : D:\Андрей\Азы постобработки в Лайтрум и Фотошоп
Формат : AVI
Формат/Информация : Audio Video Interleave
Размер файла : 278 Мбайт
Общий поток : 1700 Кбит/сек
Программа кодирования : Lavf52.93.0
Видео
Идентификатор : 0
Формат : xvid
Идентификатор кодека : xvid
Битрейт : 1431 Кбит/сек
Ширина : 1280 пикселей
Высота : 720 пикселей
Соотношение сторон : 16:9
Частота кадров : 25,000 кадров/сек
Бит/(Пиксели*Кадры) : 0.062
Размер потока : 234 Мбайт (84%)
Аудио
Идентификатор : 1
Формат : MPEG Audio
Версия формата : Version 1
Профиль формата : Layer 3
Режим : Joint stereo
Расширение режима : MS Stereo
Идентификатор кодека : 55
Идентификатор кодека/Подсказка : MP3
Вид битрейта : Постоянный
Битрейт : 256 Кбит/сек
Каналы : 2 канала
Частота : 48,0 КГц
Метод сжатия : С потерями
Размер потока : 41,8 Мбайт (15%)
Выравнивание : Соединение по промежуткам
Продолжительность промежутка : 24 мс. (0,60 видеокадр)
Библиотека кодирования : LAME3.98.4
Скачать .torrent

Для того, чтобы скачать торрент-файл

Ксения Комендацкая - Азы постобработки фотографий в Lightroom и Photoshop (2012)

с нашего сайта, Вам необходимо Войти на сайт под своим логином! Если у Вас ещё нет логина, тогда Вам нужно сначала Зарегистрироваться!

Как скачивать? · Что такое торрент? · Рейтинг и ограничения

Показать сообщения:    
Ответить на тему

Ксения Комендацкая - Азы постобработки фотографий в Lightroom и Photoshop (2012) скачать торрент (torrent), видеоуроки, тренинги, обучающее видео и видеокурсы

Текущее время: Сегодня 00:26

Часовой пояс: GMT + 4



Вы не можете начинать темы
Вы не можете отвечать на сообщения
Вы не можете редактировать свои сообщения
Вы не можете удалять свои сообщения
Вы не можете голосовать в опросах
Вы не можете прикреплять файлы к сообщениям
Вы не можете скачивать файлы