Специалист - Программирование на Visual С ++ [gotomeeting] (2011)

Ответить на тему
 
Автор Сообщение

Yulya ®

-Специалист - Программирование на Visual С ++ [gotomeeting] (2011)- Автор (режиссер): Специалист
Название: Программирование на Visual С ++ [gotomeeting]
Год выпуска: 2011 06 апреля - 6 мая
Жанр: Видеокурсы
Продолжительность: 32:16:04
Качество видео: PCRec
Видеокодек: g2m
Битрейт видео: ~76 кб/с
Размер кадра: 800 на 600
Аудиокодек: WMA
Битрейт аудио: 48.0 Kbps
Описание:
В курсе «Программирование на Visual С + +» рассматриваются все этапы подготовки и тестирования программ, написанных на языке C + +. Все теоретические положения детально демонстрируются на практических примерах, опытными преподавателями Центра «Специалист».
В раздаче присутствует исходный код.

Дополнительная информация:

Это видеокурс от другой группы. Может быть удобен тем, кому удобнее смотреть на более маленькую картинку или у кого старый монитор.

медиаинфо:

General
Complete name : H:\C++\2011-04-06 18.45 SIPP 06_04_06_05 RAD v.wmv
Format : Windows Media
File size : 128 MiB
Duration : 2h 10mn
Overall bit rate mode : Variable
Overall bit rate : 137 Kbps
Maximum Overall bit rate : 258 Kbps
Encoded date : UTC 2011-04-06 14:45:19.663
Video
ID : 3
Format : GoToMeeting3
Codec ID : G2M3
Codec ID/Info : Citrix Systems, Inc.
Duration : 2h 10mn
Bit rate mode : Variable
Bit rate : 76.6 Kbps
Width : 800 pixels
Height : 600 pixels
Display aspect ratio : 4:3
Frame rate : 29.970 fps
Bit depth : 8 bits
Bits/(Pixel*Frame) : 0.005
Stream size : 71.3 MiB (56%)
Language : Russian (RU)
Audio
ID : 1
Format : WMA
Format version : Version 2
Codec ID : 161
Codec ID/Info : Windows Media Audio
Description of the codec : Windows Media Audio 9.1 - 48 kbps, 44 kHz, mono 1-pass CBR
Duration : 2h 10mn
Bit rate mode : Constant
Bit rate : 48.0 Kbps
Channel(s) : 1 channel
Sampling rate : 44.1 KHz
Bit depth : 16 bits
Stream size : 44.7 MiB (35%)
Language : English (US)
Скачать .torrent

Для того, чтобы скачать торрент-файл

Специалист - Программирование на Visual С ++ [gotomeeting] (2011)

с нашего сайта, Вам необходимо Войти на сайт под своим логином! Если у Вас ещё нет логина, тогда Вам нужно сначала Зарегистрироваться!

Как скачивать? · Что такое торрент? · Рейтинг и ограничения

Показать сообщения:    
Ответить на тему

Специалист - Программирование на Visual С ++ [gotomeeting] (2011) скачать торрент (torrent), видеоуроки, тренинги, обучающее видео и видеокурсы

Текущее время: Сегодня 14:35

Часовой пояс: GMT + 4



Вы не можете начинать темы
Вы не можете отвечать на сообщения
Вы не можете редактировать свои сообщения
Вы не можете удалять свои сообщения
Вы не можете голосовать в опросах
Вы не можете прикреплять файлы к сообщениям
Вы не можете скачивать файлы