Степан "Sen14" - Cinema 4D — Уроки для новичков (2012 — 2013)

Ответить на тему
 
Автор Сообщение

Yulya ®

-Степан "Sen14" - Cinema 4D — Уроки для новичков (2012 — 2013)- Автор (режиссер): Степан "Sen14"
Название: Cinema 4D — Уроки для новичков
Год выпуска: 2012 — 2013
Жанр: Обучающие видеоуроки
Продолжительность: 06:58:11
Качество видео: PCRec
Видеокодек: AVC
Битрейт видео: ~23.976fps 931kbps
Размер кадра: 1280x720
Аудиокодек: AAC
Битрейт аудио: 44100Hz stereo 191kbps
Доп. материалы: Имеются
Описание:
Данный видекурс содержит уроки на такие темы как: Статическое изображение, Интро (Титры), моделирование, и из него Вы узнаете как сделать с помощью Cinema 4D то, что Вы захотите — будь, то заставка для видеопрезентации, рекламы Вашего товара или канала, моделирование, 3D-рендеринг и многое другое.
Автор на Ваших глазах сделает много привлекательных рабочих примеров в Cinema 4D и доведённые до завершения в Photoshop, которые Вы с помощью присутствующих дополнительных материалов (исходников) потом сможете без особого труда применить на практике и внедрить их в свои проекты.

Дополнительная информация:

Данный видеокурс будет полезен:
• Photoshop художникам, которые хотят расширить свои возможности в профессиональной 3D графике
• Видео дизайнерам для реализации реальных 3D возможностей, спец эффектов
• Всем тем, как быстро и легко желает научиться работать CINEMA 4D
Содержание:
• 01. 2D треккинг — Как в обычную фотографию поместить 3D текст
• 02. 3D треккинг — Как в видео поместить 3D текст
• 03. Как сделать логотип из 2D в 3D-Saint Row
• 04. Моделирование Angry Birds (часть 1)
• 05. Моделирование Angry Birds (часть 2)
• 06. Моделирование PokeBall
• 07. Моделирование Балончика
• 08. Моделирование Кабеля (Шнура)
• 09. Моделирование часов
• 10. Создание Интро анимации
• 11. Создание Интро-Gold
• 12. Создание Интро-Retro
• 13. Создание 3 В кнопки
• 14. Создание креативного Интро
• 15. Создание логотипа Youtube
• 16. Создание логотипа Youtube в стиле трансформера
• 17. Создание неонового текста
• 18. Создание простого 2D интро
• 19. Создание стиля Графика с помощью Sketch & Toon
• 20. Создание чайного стакана
• 21. Текст в воде
• 22. Текст в стиле Graffiti
• 23. Текст в стиле Space
• 24. Текст в стиле заставки: "Универ — новая общага"- часть 1
• 25. Текст в стиле заставки: "Универ — новая общага"- часть 2
• 26. Текстовый с 3D эффектjv
• 27. Текст со светящимся эффектом

MI

Общее
Полное имя : D:\Андрей\Cinema_4D
Формат : MPEG-4
Профиль формата : Base Media / Version 2
Идентификатор кодека : mp42
Размер файла : 76,1 Мбайт
Режим общего битрейта : Переменный
Общий поток : 1125 Кбит/сек
Дата кодирования : UTC 2012-10-04 14:07:26
Дата пометки : UTC 2012-10-04 14:07:26
gsst : 0
gstd : 567448
gssd : B3E41C0E4MH1376985192714980
gshh : r1---sn-nu5gh5o-uaae.c.youtube.com
Видео
Идентификатор : 1
Формат : AVC
Формат/Информация : Advanced Video Codec
Профиль формата : [url=mailto:High@L3.1]High@L3.1[/url]
Параметр CABAC формата : Да
Параметр ReFrames формата : 1 кадр
Идентификатор кодека : avc1
Идентификатор кодека/Информация : Advanced Video Coding
Битрейт : 931 Кбит/сек
Максимальный битрейт : 3707 Кбит/сек
Ширина : 1280 пикселей
Высота : 720 пикселей
Соотношение сторон : 16:9
Режим частоты кадров : Постоянный
Частота кадров : 23,976 кадра/сек
Цветовое пространство : YUV
Субдискретизация насыщенности : 4:2:0
Битовая глубина : 8 бит
Тип развёртки : Прогрессивная
Бит/(Пиксели*Кадры) : 0.042
Размер потока : 63,0 Мбайт (83%)
Дата пометки : UTC 2012-10-04 14:07:26
Аудио
Идентификатор : 2
Формат : AAC
Формат/Информация : Advanced Audio Codec
Профиль формата : LC
Идентификатор кодека : 40
Вид битрейта : Переменный
Битрейт : 191 Кбит/сек
Максимальный битрейт : 202 Кбит/сек
Каналы : 2 канала
Расположение каналов : Front: L R
Частота : 44,1 КГц
Метод сжатия : С потерями
Размер потока : 13,0 Мбайт (17%)
Заголовок : IsoMedia File Produced by Google, 5-11-2011
Дата кодирования : UTC 2012-10-04 14:07:26
Дата пометки : UTC 2012-10-04 14:07:26
Скачать .torrent

Для того, чтобы скачать торрент-файл

Степан "Sen14" - Cinema 4D — Уроки для новичков (2012 — 2013)

с нашего сайта, Вам необходимо Войти на сайт под своим логином! Если у Вас ещё нет логина, тогда Вам нужно сначала Зарегистрироваться!

Как скачивать? · Что такое торрент? · Рейтинг и ограничения

Показать сообщения:    
Ответить на тему

Степан "Sen14" - Cinema 4D — Уроки для новичков (2012 — 2013) скачать торрент (torrent), видеоуроки, тренинги, обучающее видео и видеокурсы

Текущее время: Сегодня 07:58

Часовой пояс: GMT + 4



Вы не можете начинать темы
Вы не можете отвечать на сообщения
Вы не можете редактировать свои сообщения
Вы не можете удалять свои сообщения
Вы не можете голосовать в опросах
Вы не можете прикреплять файлы к сообщениям
Вы не можете скачивать файлы