Последнее из V.I.P.-раздела

19-Ноя-19 06:59
19-Ноя-19 06:58
19-Ноя-19 06:54
19-Ноя-19 06:49
19-Ноя-19 06:47
19-Ноя-19 06:46
19-Ноя-19 06:37
19-Ноя-19 06:35
19-Ноя-19 06:30
19-Ноя-19 06:25

Ксения Комендацкая - Фотография в путешествии и Cъемка в движении (2013)

Ответить на тему
 
Автор Сообщение

Yulya ®

-Ксения Комендацкая - Фотография в путешествии и Cъемка в движении (2013)- Автор (режиссер): Ксения Комендацкая
Название: Фотография в путешествии и Cъемка в движении
Год выпуска: 2013
Жанр: Обучающий видеокурс
Продолжительность: 02:30:12
Качество видео: PCRec
Видеокодек: Xvid
Битрейт видео: ~1 648 Kbps 25.000 fps
Размер кадра: 1280x720
Аудиокодек: MP3
Битрейт аудио: 48000Hz stereo 256kbps
Описание:
Собираетесь в отпуск? Хотите посетить "Старый мир" и объездить всю Европу? Неважно куда вы поедете, но наверняка захотите привезти яркие воспоминания в виде красивых фотографий. Но тут незадача, почему то часть фотографий получаются блеклые и нечеткие, а другая часть плоские, неинтересные, не передающие тех эмоций, которые вы хотели бы передать, ну и самое главное, когда были самые яркие и интересные моменты у вас села батарея. Если у вас такое случалось, тогда этот видеокурс для Вас. Просмотрев и осмыслив данный видеокурс Вы научитесь делать качественные фотографии в путешествиях.
Современная жизнь — сложная штука. Мы все время находимся в движении, и останавливаемся, лишь когда кто-то из наших знакомых достает фотоаппарат и произносит такую привычную фразу — «Внимание! Снимаю!». И мы замираем, с улыбкой глядя в черный глаз объектива, и стараемся не моргнуть в ответ на ослепляющую вспышку. Постепенно фотоархив заполняется статичными кадрами, и у нас появляется жажда движения — хочется, наконец, передать всю динамику происходящего. Но результат зачастую далек от идеала. И неудивительно — ведь подход к съемке динамичных сюжетов отличается от фотографирования пейзажей. Данный видеокурс научит Вас как правильно производить съемку в движении.

Содержание:

• Советы по выбору техники для съемки в путешествии
• Что снимать в путешествии, чтобы сохранить максимум впечатлений
• Снимаем портрет в путешествии
• Снимаем пейзаж в путешествии
• Снимаем предметку в путешествии
• Несколько полезных приемов в Adobe Photoshop для улучшения ваших фотографий из путешествия
• Съемка движущихся объектов: основные особенности
• «Замораживаем», «смазываем» и «проводим»
• Настройки фотоаппарата для съемки в движении
• Импульсные и постоянные источники света для съемки движения
• Как поймать «тот самый момент»
• Как срежессировать кадр с движением
• Как подчеркнуть движение при помощи выразительных средств фотографии

MI

Общее
Полное имя : D:\Андрей\foto_putshestvie
Формат : AVI
Формат/Информация : Audio Video Interleave
Размер файла : 971 Мбайт
Общий поток : 1917 Кбит/сек
Программа кодирования : Lavf52.93.0
Видео
Идентификатор : 0
Формат : xvid
Идентификатор кодека : xvid
Битрейт : 1648 Кбит/сек
Ширина : 1280 пикселей
Высота : 720 пикселей
Соотношение сторон : 16:9
Частота кадров : 25,000 кадров/сек
Бит/(Пиксели*Кадры) : 0.072
Размер потока : 835 Мбайт (86%)
Аудио
Идентификатор : 1
Формат : MPEG Audio
Версия формата : Version 1
Профиль формата : Layer 3
Режим : Joint stereo
Расширение режима : MS Stereo
Идентификатор кодека : 55
Идентификатор кодека/Подсказка : MP3
Вид битрейта : Постоянный
Битрейт : 256 Кбит/сек
Каналы : 2 канала
Частота : 48,0 КГц
Метод сжатия : С потерями
Размер потока : 130 Мбайт (13%)
Выравнивание : Соединение по промежуткам
Продолжительность промежутка : 24 мс. (0,60 видеокадр)
Библиотека кодирования : LAME3.98.4
Скачать .torrent

Для того, чтобы скачать торрент-файл

Ксения Комендацкая - Фотография в путешествии и Cъемка в движении (2013)

с нашего сайта, Вам необходимо Войти на сайт под своим логином! Если у Вас ещё нет логина, тогда Вам нужно сначала Зарегистрироваться!

Как скачивать? · Что такое торрент? · Рейтинг и ограничения

Показать сообщения:    
Ответить на тему

Ксения Комендацкая - Фотография в путешествии и Cъемка в движении (2013) скачать торрент (torrent), видеоуроки, тренинги, обучающее видео и видеокурсы

Текущее время: Сегодня 15:00

Часовой пояс: GMT + 4



Вы не можете начинать темы
Вы не можете отвечать на сообщения
Вы не можете редактировать свои сообщения
Вы не можете удалять свои сообщения
Вы не можете голосовать в опросах
Вы не можете прикреплять файлы к сообщениям
Вы не можете скачивать файлы