Оксана Турова - Азы сайтостроения для начинающих (2012)

Ответить на тему
 
Автор Сообщение

Yulya ®

-Оксана Турова - Азы сайтостроения для начинающих (2012)- Автор (режиссер): Оксана Турова
Название: Азы сайтостроения для начинающих
Год выпуска: 2012
Жанр: Web-дизайн
Продолжительность: 07:02:47
Качество видео: PCRec
Видеокодек: AVC
Битрейт видео: ~15fps 825kbps
Размер кадра: 1280x720
Аудиокодек: AAC
Битрейт аудио: 44100Hz stereo 148kbps
Доп.материалы: Есть
Описание:
Видеокурс "Азы сайтостроения для начинающих" познакомит Вас с азами современной верстки сайтов. Автор курса расскажет вам об основах сайтостроения и аспектах веб дизайна. Из курса Вы узнаете как создавать HTML-документ, как прописывать в нем теги, создавать различные элементы при помощи этих тегов, как оформлять страницу при помощи каскадных таблиц стилей, и как эти стили подключать к HTML-документу, что такое блочная верстка, как сделать фиксированный и резиновый макет.
Так же в курсе рассмотрены различные примеры для создания типичной веб-страницы, состоящей из шапки, колонок и подвала. Изучив этот виделкурс - Вы научитетесь оздавать классы CSS для тегов и познакомитесь с новыми тегами, создавать макет для сайта в Photoshop и многое другое.
И совершенно не важно сколько Вам лет, и не нужно быть дизайнером или художником, чтобы с помощью приведённого курса научиться создавать завораживающие дизайны сайтов. А, чтобы Вам было легче воплотить это в реальный проект, то на этот случай в курсе присутствуют исходники (шаблонов)материалов рассмотренных в курсе тем, и несколько готовых шаблонов сайтов

Содержание:

Часть 1 - HTML
01. Создание HTML-документа
02. Структура HTML-документа
03. Создание простой статьи
04. Атрибуты тегов
05. Как вставить картинку в HTML
06. HTML ссылка
07. HTML таблица
08. Списки в HTML
09. Каскадные таблицы стилей
10. Основы HTML верстки. Часть 1
11. Основы HTML верстки. Часть 2
12. Удобные настройки в Notepad++
13. Дополнительные материалы
Часть 2 - Вёрстка сайта
00. Классы в CSS
01. Фиксированный макет c одной колонкой
02. Шапка и подвал. Как прибить подвал к низу страницы
03. Создание контента
04. Фиксированный макет с двумя колонками
05. Фиксированный макет с тремя колонками
06. Резиновый макет сайта
07. Из PSD в HTML. Часть 1
08. Из PSD в HTML. Часть 2 - Верстка шапки.
09. Из PSD в HTML. Часть 3 - Верстка горизонтального меню
10. Из PSD в HTML. Часть 4 - Верстка вертикального меню
11. Из PSD в HTML. Часть 5 - Создание контентной части
12. Из PSD в HTML. Часть 5 - Верстка подвала
13. Использование LESS CSS
14. Подсветка LESS CSS кода в Notepad++
15. Дополнительные материалы (исходники)
Часть 3 - Photoshop
01. Как нарисовать макет для сайта в Photoshop
02. Создание макета для сайта в Photoshop. Текстура
03. Создание логотипа и контактов
04. Рисуем горизонтальное меню
05. Горизонтального меню в стиле Apple
06. Рисуем вертикальное меню
07. Рисуем контентную часть и подвал
08. Создание кнопок для сайта в Photoshop
09. Настройка панелей в Photoshop
10. Размер блока при нарезке макета с помощью панели Info
11. Дополнительные материалы (исходники)

MI

Общее
Полное имя : D:\Андрей\AZY_Saitostr
Формат : MPEG-4
Профиль формата : Base Media / Version 2
Идентификатор кодека : mp42
Размер файла : 115 Мбайт
Режим общего битрейта : Переменный
Общий поток : 977 Кбит/сек
Дата кодирования : UTC 2012-04-09 06:45:59
Дата пометки : UTC 2012-04-09 06:45:59
gsst : 0
gstd : 990933
gssd : B3E41C0E4MM1375266063926352
gshh : r1---sn-nu5gh5o-uaae.c.youtube.com
Видео
Идентификатор : 1
Формат : AVC
Формат/Информация : Advanced Video Codec
Профиль формата : [url=mailto:High@L3.1]High@L3.1[/url]
Параметр CABAC формата : Да
Параметр ReFrames формата : 1 кадр
Идентификатор кодека : avc1
Идентификатор кодека/Информация : Advanced Video Coding
Битрейт : 825 Кбит/сек
Максимальный битрейт : 10,8 Мбит/сек
Ширина : 1280 пикселей
Высота : 720 пикселей
Соотношение сторон : 16:9
Режим частоты кадров : Постоянный
Частота кадров : 15,000 кадров/сек
Цветовое пространство : YUV
Субдискретизация насыщенности : 4:2:0
Битовая глубина : 8 бит
Тип развёртки : Прогрессивная
Бит/(Пиксели*Кадры) : 0.060
Размер потока : 97,6 Мбайт (85%)
Дата пометки : UTC 2012-04-09 06:46:00
Аудио
Идентификатор : 2
Формат : AAC
Формат/Информация : Advanced Audio Codec
Профиль формата : LC
Идентификатор кодека : 40
Вид битрейта : Переменный
Битрейт : 148 Кбит/сек
Максимальный битрейт : 185 Кбит/сек
Каналы : 2 канала
Расположение каналов : Front: L R
Частота : 44,1 КГц
Метод сжатия : С потерями
Размер потока : 17,6 Мбайт (15%)
Заголовок : IsoMedia File Produced by Google, 5-11-2011
Дата кодирования : UTC 2012-04-09 06:45:59
Дата пометки : UTC 2012-04-09 06:46:00
Скачать .torrent

Для того, чтобы скачать торрент-файл

Оксана Турова - Азы сайтостроения для начинающих (2012)

с нашего сайта, Вам необходимо Войти на сайт под своим логином! Если у Вас ещё нет логина, тогда Вам нужно сначала Зарегистрироваться!

Как скачивать? · Что такое торрент? · Рейтинг и ограничения

Показать сообщения:    
Ответить на тему

Оксана Турова - Азы сайтостроения для начинающих (2012) скачать торрент (torrent), видеоуроки, тренинги, обучающее видео и видеокурсы

Текущее время: Сегодня 06:34

Часовой пояс: GMT + 4



Вы не можете начинать темы
Вы не можете отвечать на сообщения
Вы не можете редактировать свои сообщения
Вы не можете удалять свои сообщения
Вы не можете голосовать в опросах
Вы не можете прикреплять файлы к сообщениям
Вы не можете скачивать файлы