Александр Заморин - Как научиться фотографировать на зеркальную фотокамеру (2013)

Ответить на тему
 
Автор Сообщение

Yulya ®

-Александр Заморин - Как научиться фотографировать на зеркальную фотокамеру (2013)- Автор (режиссер): Александр Заморин
Название: Как научиться фотографировать на зеркальную фотокамеру
Год выпуска: 2013
Жанр: Обучающий видеокурс
Продолжительность: 00:41:44
Качество видео: PCRec
Видеокодек: AVC
Битрейт видео: ~30fps 190kbps
Размер кадра: 1280x720, 640x480
Аудиокодек: AAC
Битрейт аудио: 44100Hz stereo 98kbps
Доп. материалы: Имеются
Описание:
Обучающий видеокурс для начинающих «Как научиться фотографировать на зеркальную фотокамеру» обучит Вас техническим тонкостям работы с фотокамерой, что позволит Вам уже сегодня улучшить качество Ваших снимков в несколько раз. У Вас откроется много новых возможностей для проявления своего творчества!

Содержание видеокурса «Как научиться фотографировать на зеркальную фотокамеру»:
1. Изучаем основные органы управления фотокамерой. Что влияет больше всего на качество ваших снимков? Какие настройки действительно понадобятся?
2. Как легко перейти на ручной режим фотосъёмки, перестать снимать на автомате и начать делать по настоящему эффектные и стоящие фотографии!
3. Зачем необходимо настраивать ISO? Что это такое, на что оно влияет и как им пользоваться для достижения наилучшего качества ваших снимков.
4. Выдержка. Как её настраивать и использовать в различных ситуациях. Что нужно снимать с очень длинной выдержкой, а что с очень короткой?
5. Диафрагма - зачем она нужна и как её правильно настраивать при съёмки портрета, пейзажа, макро и т.д? Как получить эффектный размытый фон или наоборот высокую детализацию.
6. Что такое гистограмма в цифровом фотоаппарате. Как спасти ваши лучшие снимки от пересвечивания или излишней темноты?
7. Хитрости цифровой печати. Как быстро и просто напечатать фотографии при этом сэкономив значительную сумму денег?
Бонус
Спец-отчёт, посвещённый творческой части искусства фотографии. Изучив всего 32 страницы с картинками и открыв для себя пять секретов компазиции, Вы сможете улучшить качество ваших снимков в 10 раз уже сегодня!!! Поэтому читайте, анализируйте, затем хватайте в руки свой фотоаппарат и бегом пробовать новые знания на деле.

MI

Общее
Полное имя : D:\Андрей\zamorin
Формат : MPEG-4
Профиль формата : Base Media
Идентификатор кодека : isom
Размер файла : 9,48 Мбайт
Режим общего битрейта : Переменный
Общий поток : 293 Кбит/сек
Дата кодирования : UTC 2012-01-14 03:45:16
Дата пометки : UTC 2012-01-15 03:45:35
Видео
Идентификатор : 1
Формат : AVC
Формат/Информация : Advanced Video Codec
Профиль формата : [url=mailto:High@L3.1]High@L3.1[/url]
Параметр CABAC формата : Да
Параметр ReFrames формата : 4 кадра
Идентификатор кодека : avc1
Идентификатор кодека/Информация : Advanced Video Coding
Битрейт : 191 Кбит/сек
Максимальный битрейт : 970 Кбит/сек
Ширина : 1280 пикселей
Высота : 720 пикселей
Соотношение сторон : 16:9
Режим частоты кадров : Постоянный
Частота кадров : 30,000 кадров/сек
Цветовое пространство : YUV
Субдискретизация насыщенности : 4:2:0
Битовая глубина : 8 бит
Тип развёртки : Прогрессивная
Бит/(Пиксели*Кадры) : 0.007
Размер потока : 6,17 Мбайт (65%)
Библиотека кодирования : Vimeo Encoder
Дата кодирования : UTC 2012-01-14 03:45:16
Дата пометки : UTC 2012-01-14 03:45:35
Аудио
Идентификатор : 2
Формат : AAC
Формат/Информация : Advanced Audio Codec
Профиль формата : LC
Идентификатор кодека : 40
Вид битрейта : Переменный
Битрейт : 98,4 Кбит/сек
Максимальный битрейт : 128 Кбит/сек
Каналы : 2 канала
Расположение каналов : Front: L R
Частота : 44,1 КГц
Метод сжатия : С потерями
Размер потока : 3,18 Мбайт (34%)
Дата кодирования : UTC 2012-01-14 03:45:18
Дата пометки : UTC 2012-01-14 03:45:35
Скачать .torrent

Для того, чтобы скачать торрент-файл

Александр Заморин - Как научиться фотографировать на зеркальную фотокамеру (2013)

с нашего сайта, Вам необходимо Войти на сайт под своим логином! Если у Вас ещё нет логина, тогда Вам нужно сначала Зарегистрироваться!

Как скачивать? · Что такое торрент? · Рейтинг и ограничения

Показать сообщения:    
Ответить на тему

Александр Заморин - Как научиться фотографировать на зеркальную фотокамеру (2013) скачать торрент (torrent), видеоуроки, тренинги, обучающее видео и видеокурсы

Текущее время: Сегодня 08:01

Часовой пояс: GMT + 4



Вы не можете начинать темы
Вы не можете отвечать на сообщения
Вы не можете редактировать свои сообщения
Вы не можете удалять свои сообщения
Вы не можете голосовать в опросах
Вы не можете прикреплять файлы к сообщениям
Вы не можете скачивать файлы