TeachVideo - Online-помощник - Evernote (2012)

Ответить на тему
 
Автор Сообщение

Yulya ®

-TeachVideo - Online-помощник - Evernote (2012)- Автор (режиссер): TeachVideo
Название: Online-помощник - Evernote
Год выпуска: 2012
Жанр: Обучающий видеокурс
Продолжительность: 00:46:27
Качество видео: PCRec
Видеокодек: AVC
Битрейт видео: ~15fps 736kbps
Размер кадра: 1280x720
Аудиокодек: AAC
Битрейт аудио: 44100Hz stereo 126kbps
Описание:
Курс познакомит вас с Evernote® - одним из самых популярных онлайн-сервисов, предназначенных для сохранения, синхронизации и поиска заметок, в том числе текстовых записей, веб-страниц, списка задач, перечня покупок, фотографий, картинок, электронной почты и т. д. Просто посмотрите эти короткие и информативные видеоролики, и вы узнаете, каким прекрасным помощником в делах может стать эта программа!

Дополнительная информация:

Содержание:
1.Знакомство с Evernote
2..Регистрация в Evernote
3.Вход в Evernote
4.Создание заметки в Evernote. Часть 1
5.Создание заметки в Evernote. Часть 2
6.Создание рукописной заметки в Evernote
7.Создание аудиозаметки в Evernote
8.Создание заметки с веб-камеры в Evernote
9.Создание блокнотов в Evernote
10.Работа с метками в Evernote
11.Поиск заметок по атрибутам в Evernote
12.Поиск текста внутри заметок в Evernote
13.Корзина в Evernote
14.Импорт и экспорт заметок в Evernote
15.Синхронизация заметок в Evernote.
16.Печать страниц Evernote
17.Веб-аккаунт Evernote
18.Совместный доступ к блокнотам Evernote
19.Подключение публичных блокнотов Evernote
20.Как поделиться заметками Evernote
21.Веб-клиппер Evernote
22.Публикация заметок Evernote по почте
23.Публикация заметок Evernote через Twitte
24.Премиум-аккаунт Evernote
25.Галерея Evernote

MI

Общее
Полное имя : D:\Андрей\Evernote
Формат : MPEG-4
Профиль формата : Base Media / Version 2
Идентификатор кодека : mp42
Размер файла : 11,1 Мбайт
Режим общего битрейта : Переменный
Общий поток : 865 Кбит/сек
Дата кодирования : UTC 2012-04-22 12:45:46
Дата пометки : UTC 2012-04-22 12:45:46
gsst : 0
gstd : 107856
gssd : B2E3D9B08MM1377008240018810
gshh : r5---sn-gvnuxaxjvh-n8ve.c.youtube.com
Видео
Идентификатор : 1
Формат : AVC
Формат/Информация : Advanced Video Codec
Профиль формата : [url=mailto:High@L3.1]High@L3.1[/url]
Параметр CABAC формата : Да
Параметр ReFrames формата : 1 кадр
Идентификатор кодека : avc1
Идентификатор кодека/Информация : Advanced Video Coding
Битрейт : 736 Кбит/сек
Максимальный битрейт : 5983 Кбит/сек
Ширина : 1280 пикселей
Высота : 720 пикселей
Соотношение сторон : 16:9
Режим частоты кадров : Постоянный
Частота кадров : 15,000 кадров/сек
Цветовое пространство : YUV
Субдискретизация насыщенности : 4:2:0
Битовая глубина : 8 бит
Тип развёртки : Прогрессивная
Бит/(Пиксели*Кадры) : 0.053
Размер потока : 9,46 Мбайт (85%)
Дата пометки : UTC 2012-04-22 12:45:46
Аудио
Идентификатор : 2
Формат : AAC
Формат/Информация : Advanced Audio Codec
Профиль формата : LC
Идентификатор кодека : 40
Вид битрейта : Переменный
Битрейт : 126 Кбит/сек
Максимальный битрейт : 146 Кбит/сек
Каналы : 2 канала
Расположение каналов : Front: L R
Частота : 44,1 КГц
Метод сжатия : С потерями
Размер потока : 1,62 Мбайт (15%)
Заголовок : IsoMedia File Produced by Google, 5-11-2011
Дата кодирования : UTC 2012-04-22 12:45:46
Дата пометки : UTC 2012-04-22 12:45:46
Скачать .torrent

Для того, чтобы скачать торрент-файл

TeachVideo - Online-помощник - Evernote (2012)

с нашего сайта, Вам необходимо Войти на сайт под своим логином! Если у Вас ещё нет логина, тогда Вам нужно сначала Зарегистрироваться!

Как скачивать? · Что такое торрент? · Рейтинг и ограничения

Показать сообщения:    
Ответить на тему

TeachVideo - Online-помощник - Evernote (2012) скачать торрент (torrent), видеоуроки, тренинги, обучающее видео и видеокурсы

Текущее время: Сегодня 14:37

Часовой пояс: GMT + 4



Вы не можете начинать темы
Вы не можете отвечать на сообщения
Вы не можете редактировать свои сообщения
Вы не можете удалять свои сообщения
Вы не можете голосовать в опросах
Вы не можете прикреплять файлы к сообщениям
Вы не можете скачивать файлы