Артем Лукьянов - After Effects. Быстрый старт (2013)

Ответить на тему
 
Автор Сообщение

Yulya ®

-Артем Лукьянов - After Effects. Быстрый старт (2013)- Автор (режиссер): Артем Лукьянов
Название: After Effects. Быстрый старт
Год выпуска: 2013
Жанр: Обучающее видео
Продолжительность: 02:05:12
Качество видео: PCRec
Видеокодек: AVC
Битрейт видео: ~509 Кбит/сек
Размер кадра: 1280х720
Аудиокодек: AAC 2.0
Битрейт аудио: 192 Кбит/сек
Описание:
Adobe After Effects - самое мощное средство компьютерного видеомонтажа и анимации. С помощью этой программы Вы научитесь применять к видеоклипам различные видео- и аудиоэффекты, а также создавать анимации, в том числе трехмерные. Adobe After Effects поможет вам создать фильм, не уступающий лучшим мировым образцам. Все любители кино наверняка видели красочные спецэффекты, которые используются при создании профессиональных видеофильмов. Казалось бы, повторить их в домашних условиях попросту нереально: для этого необходим целый штат профессионалов и специальное дорогостоящее оборудование. Однако все не так: с развитием компьютерных технологий это становится доступным практически каждому.

Содержание уроков:

1. Начало
2. Анимация. Часть-1
3. Анимация. Часть-2
4. Эффекты
5. Кеинг
6. Титры
7. Создание 3D текста
8. Работа со временем
9. Трекинг

MI:

Видео
Идентификатор : 1
Формат : AVC
Формат/Информация : Advanced Video Codec
Профиль формата : [url=mailto:High@L3.1]High@L3.1[/url]
Параметр CABAC формата : Да
Параметр ReFrames формата : 1 кадр
Идентификатор кодека : avc1
Идентификатор кодека/Информация : Advanced Video Coding
Битрейт : 509 Кбит/сек
Максимальный битрейт : 3799 Кбит/сек
Ширина : 1280 пикселей
Высота : 720 пикселей
Соотношение сторон : 16:9
Режим частоты кадров : Постоянный
Частота кадров : 15,000 кадров/сек
Цветовое пространство : YUV
Субдискретизация насыщенности : 4:2:0
Битовая глубина : 8 бит
Тип развёртки : Прогрессивная
Бит/(Пиксели*Кадры) : 0.037
Размер потока : 51,0 Мбайт (72%)
Дата пометки : UTC 2013-04-22 08:46:52
Аудио
Идентификатор : 2
Формат : AAC
Формат/Информация : Advanced Audio Codec
Профиль формата : LC
Идентификатор кодека : 40
Вид битрейта : Переменный
Битрейт : 192 Кбит/сек
Максимальный битрейт : 201 Кбит/сек
Каналы : 2 канала
Расположение каналов : Front: L R
Частота : 44,1 КГц
Метод сжатия : С потерями
Размер потока : 19,2 Мбайт (27%)
Заголовок : IsoMedia File Produced by Google, 5-11-2011
Дата кодирования : UTC 2013-04-22 08:46:49
Дата пометки : UTC 2013-04-22 08:46:52
Скачать .torrent

Для того, чтобы скачать торрент-файл

Артем Лукьянов - After Effects. Быстрый старт (2013)

с нашего сайта, Вам необходимо Войти на сайт под своим логином! Если у Вас ещё нет логина, тогда Вам нужно сначала Зарегистрироваться!

Как скачивать? · Что такое торрент? · Рейтинг и ограничения

Показать сообщения:    
Ответить на тему

Артем Лукьянов - After Effects. Быстрый старт (2013) скачать торрент (torrent), видеоуроки, тренинги, обучающее видео и видеокурсы

Текущее время: Сегодня 03:22

Часовой пояс: GMT + 4



Вы не можете начинать темы
Вы не можете отвечать на сообщения
Вы не можете редактировать свои сообщения
Вы не можете удалять свои сообщения
Вы не можете голосовать в опросах
Вы не можете прикреплять файлы к сообщениям
Вы не можете скачивать файлы