Владимир Дручин - «Блоггер-Новичок. Создание профессионального блога от А до Я» (2012)

Ответить на тему
 
Автор Сообщение

Yulya ®

-Владимир Дручин - «Блоггер-Новичок. Создание профессионального блога от А до Я» (2012)- Автор (режиссер): Владимир Дручин
Название: «Блоггер-Новичок. Создание профессионального блога от А до Я»
Год выпуска: 2012
Жанр: Обучающее видео
Продолжительность: 08:21:00
Качество видео: WEB-DLRip
Видеокодек: AVC
Битрейт видео: ~376 Kbps/15.000 fps
Размер кадра: 1024х768
Аудиокодек: AAC
Битрейт аудио: 52.9 Kbps/44.1 KHz
Описание:
Подробнее о курсе:
- Он состоит из 45 пошаговых уроков и дополнительных материалов.
- Общая продолжительность 8 часов 21 минута.
В курсе рассмотрено всё, что нужно, для создания полноценного блога От А до Я:
- Регистрация домена и хостинга.
- Выбор, установка и настройка движка WordPress.
- Выбор нужных расширений (плагинов), их установка и настройка.
- Умение создавать записи, страницы, заполнять все необходимые поля.
- Менять дизайны блога на самые подходящие.

Дополнительная информация:

1. Модуль «Теория и принципы».
1.1 − Преимущества и смысл блоггинга — почему выгодно вести блог.
1.2 − Структура блога — как просто понять, из чего состоит блог и как с ним легко работать.
2. Модуль «Основа — Домен+Хостинг».
2.1 − Домен — какой выбрать, где и как купить дешевле.
2.2 − Хостинг — выбор оптимального варианта для ваших целей по цене и качеству.
3. Модуль «Доступ».
3.1 − ФТП клиент Filezilla — настраиваем удобный и быстрый доступ на ваши сайты.
4. Модуль «Ядро — движок блога».
4.1 − Как установить движок — шде скачать правильный и как правильно установить.
4.2 − ЧПУ-ссылки — как правильно настроить этот важный момент.
5. Модуль «Расширения и возможности».
5.1 − Как устанавливать плагины (принципы).
5.2 − Карта сайта для поисковиков — «Google XML Sitemaps».
5.3 − Внутренняя оптимизация блога — «All in One SEO Pack» (самый популярный плагин для продвижения).
5.4 − Карта сайта для людей.
5.5 − Транслитерация русских символов URL.
5.6 − Русские даты — «MaxSite Russian Date».
5.7 − Нормальное отображение окончания слова «комментарий».
5.8 − Обработка кавычек, тире, спецсимволов — «ВП Типограф Лайт».
6. Модуль «Вид и дизайн».
6.1 — Выбор темы оформления: где скачать качественную, как правильно установить и активировать.
6.2 − Установка дополнительных плагинов.
6.3 − Настройка слайдера, изучение консоли темы оформления.
6.4 − Создаём меню в блоге. Добавляем виджеты.
6.5 − Решаем проблемы с кодировкой (если отображаются кракозябры вместо букв).
7. Модуль «Записи и страницы».
7.1 − Создание статьи.
7.2 − Создание страницы.
7.3 − Создание ссылки (это обязан знать каждый!).
8. Модуль «Дополнительные дизайны».
8.1 − Вторая тема оформления блога.
8.2 − Вторая тема оформления — доработка темы.
9. Модуль «Расширения — продолжение».
9.1 − Защита от спама в комментариях — математическая капча.
9.2 − Теги и похожие записи в конце поста — «Simple Tags».
9.3 − Защита/предупреждение XSS-атак.
9.4 − Удобная вставка видео — «Video Embedder».
9.5 − Опросы — плагин и виджет.
10. Модуль «Начало развития».
10.1 − Файл robots.txt.
10.2 − Сервис Яндекс.Вебмастер.
11. Модуль «Статистика и Стандартный Канал подписки».
11.1 − Статистика Гугла — Google Analytics.
11.2 − Статистика и счётчик посещаемости от Liveinternet (rак получить и установить на блог).
11.3 − RSS-1. Настройка и установка RSS. Как правильно создать канал RSS и активировать его.
11.4 − RSS-2. Подписка по email: как создать форму подписки, используя сервис Feedburner.
11.5 − RSS-3. Как получить и правильно установить счётчик кол-ва читателей по RSS.
12. Модуль «Безопасность блога!».
12.1 − Как сделать бэкап базы и файлов, чтобы избежать потери собственного блога, его файлов и статей!.
12.2 − Обновление движка Вордпресс: как правильно обновляться, что бы получать новые возможности и дополнительную безопасность.
13. Модуль «Социализация».
13.1 − Введение. Современные тенденции и новые способы получения трафика, читателей и клиентов.
13.2 — Кнопка твитнуть. Какую лучше выбрать и как правильно установить в нужное место на блоге.
13.3 — Кнопка Гугл+1. Как правильно установить в нужное место на блоге.
13.4 — Кнопка Вконтакте. Где получить и как установить, что бы она работала.
13.5 — Кнопка Фейсбука. Где получить и как правильно настроить, установив в нужное место на блоге.
14. Модуль «Что делать дальше?»
14.1 − Что делать дальше: стратегии и наставления на дальнейшее продвижение!

MediaInfo

General
Complete name : D:\фильмы\Blogger-Novichok\1.1.mp4
Format : MPEG-4
Format profile : Base Media / Version 2
Codec ID : mp42
File size : 57.3 MiB
Duration : 18mn 37s
Overall bit rate : 431 Kbps
Encoded date : UTC 2012-01-02 21:31:31
Tagged date : UTC 2012-01-02 21:31:31
Video
ID : 1
Format : AVC
Format/Info : Advanced Video Codec
Format profile : [url=mailto:High@L4.0]High@L4.0[/url]
Format settings, CABAC : Yes
Format settings, ReFrames : 4 frames
Format settings, GOP : M=1, N=75
Codec ID : avc1
Codec ID/Info : Advanced Video Coding
Duration : 18mn 37s
Source duration : 18mn 37s
Bit rate mode : Variable
Bit rate : 376 Kbps
Width : 1 024 pixels
Height : 768 pixels
Display aspect ratio : 4:3
Frame rate mode : Constant
Frame rate : 15.000 fps
Color space : YUV
Chroma subsampling : 4:2:0
Bit depth : 8 bits
Scan type : Progressive
Bits/(Pixel*Frame) : 0.032
Stream size : 50.0 MiB (87%)
Source stream size : 50.0 MiB (87%)
Language : English
Encoded date : UTC 2012-01-02 21:31:31
Tagged date : UTC 2012-01-02 21:31:31
mdhd_Duration : 1117237
Color primaries : BT.709
Transfer characteristics : BT.709
Matrix coefficients : BT.709
Audio
ID : 2
Format : AAC
Format/Info : Advanced Audio Codec
Format profile : LC
Codec ID : 40
Duration : 18mn 37s
Source duration : 18mn 37s
Bit rate mode : Constant
Bit rate : 52.9 Kbps
Channel count : 2 channels
Channel positions : Front: L R
Sampling rate : 44.1 KHz
Compression mode : Lossy
Stream size : 7.04 MiB (12%)
Source stream size : 7.04 MiB (12%)
Language : English
Encoded date : UTC 2012-01-02 21:31:31
Tagged date : UTC 2012-01-02 21:31:31
mdhd_Duration : 1116729
Скриншоты:
Скачать .torrent

Для того, чтобы скачать торрент-файл

Владимир Дручин - «Блоггер-Новичок. Создание профессионального блога от А до Я» (2012)

с нашего сайта, Вам необходимо Войти на сайт под своим логином! Если у Вас ещё нет логина, тогда Вам нужно сначала Зарегистрироваться!

Как скачивать? · Что такое торрент? · Рейтинг и ограничения

Показать сообщения:    
Ответить на тему

Владимир Дручин - «Блоггер-Новичок. Создание профессионального блога от А до Я» (2012) скачать торрент (torrent), видеоуроки, тренинги, обучающее видео и видеокурсы

Текущее время: Сегодня 21:41

Часовой пояс: GMT + 4



Вы не можете начинать темы
Вы не можете отвечать на сообщения
Вы не можете редактировать свои сообщения
Вы не можете удалять свои сообщения
Вы не можете голосовать в опросах
Вы не можете прикреплять файлы к сообщениям
Вы не можете скачивать файлы