Михалевич Сергей - Верстаем на 5+ (2013)

Ответить на тему
 
Автор Сообщение

Yulya ®

-Михалевич Сергей - Верстаем на 5+ (2013)- Автор (режиссер): Михалевич Сергей
Название: Верстаем на 5+
Год выпуска: 2013
Жанр: Обучающие видеокурсы
Продолжительность: 25:00:00
Качество видео: PCRec
Видеокодек: MPEG4 Video (H264)
Битрейт видео: ~15fps 642kbps
Размер кадра: 1280x720
Аудиокодек: AAC
Битрейт аудио: 44100Hz stereo 52kbps
Описание:
В этом тренинге мы не будем тратить ваше драгоценное время на пустую болтовню. А будем заниматься практикой. Сначала изучим назубок HTML, затем будем на практике изучать CSS.
Причем Вы будете вести свой онлайн дневник, в котором и будете сразу практиковать новые знания, полученные в уроках. Это позволит Вам успешно запоминать материал, а мне проводить качественную проверку ваших работ.
Каждый день будут домашние задания, проходя которые Вы будете накапливать все больший и больший практический опыт.
Я буду рассказывать и предупреждать о всевозможных ошибках, которые очень часто допускают новички. Покажу отличные инструменты для проверки своего кода, и работы с уже готовыми страницами – вы сможете редактировать их в живом режиме и сразу смотреть на результат.
Это реально круто!
Так как Вы научитесь сразу использовать навороченные инструменты для быстрой верстки и сможете избежать сотен ошибок. Сохранив свое время и нервы. Я уж молчу про вагон отличного настроения.
Я буду детально рассказывать про каждое свойство и тег, как они работают, почему именно так отображаются, и как это все поменять под себя. Вы узнаете много полезного и интересного. Вы будете знать всю кухню верстки изнутри.
И уже после изучения и закрепления на практике HTML и CSS, мы приступим к созданию 5 шаблонов…
Вот лишь малая часть того, что Вы получите, став участником моего тренинга.
Вы будете мастерски владеть HTML и CSS.
Вы узнаете и сможете пользоваться самыми продвинутыми инструментами для верстки сайта.
Вы научитесь делать кроссбраузерные сайты с хорошим юзабилити.
Вы сможете сверстать сайт любой сложности используя передовые знания верстки.
Вы сможете переделать под свои нужды практически любой шаблон и сайт, который найдете в интернете.
Вы получите пошаговую схему обучения и закрепите это все на вагонах практики.
Вы сможете прилично зарабатывать, оказывая услуги по верстке сайтов.

MediaInfo:

Видео
Идентификатор : 1
Формат : AVC
Формат/Информация : Advanced Video Codec
Профиль формата : [url=mailto:High@L3.1]High@L3.1[/url]
Параметр CABAC формата : Да
Параметр ReFrames формата : 4 кадра
Параметр GOP формата : M=1, N=75
Идентификатор кодека : avc1
Идентификатор кодека/Информация : Advanced Video Coding
Вид битрейта : Переменный
Битрейт : 608 Кбит/сек
Ширина : 1280 пикселей
Высота : 720 пикселей
Соотношение сторон : 16:9
Режим частоты кадров : Постоянный
Частота кадров : 15,000 кадров/сек
Цветовое пространство : YUV
Субдискретизация насыщенности : 4:2:0
Битовая глубина : 8 бит
Тип развёртки : Прогрессивная
Бит/(Пиксели*Кадры) : 0.044
Размер потока : 21,6 Мбайт (87%)
Размер потока оригинала : 22,8 Мбайт (92%)
Язык : English
mdhd_Duration : 297672
Основные цвета : BT.709
Характеристики трансфера : BT.709
Коэффициенты матрицы : BT.709
Аудио
Идентификатор : 2
Формат : AAC
Формат/Информация : Advanced Audio Codec
Профиль формата : LC
Идентификатор кодека : 40
Вид битрейта : Постоянный
Битрейт : 53,0 Кбит/сек
Каналы : 2 канала
Расположение каналов : Front: L R
Частота : 44,1 КГц
Метод сжатия : С потерями
Размер потока : 1,88 Мбайт (8%)
Размер потока оригинала : 1,88 Мбайт (8%)
Язык : English
mdhd_Duration : 297722

Комментарии:

Автор раздачи яростно рекомендует использовать Sublime Text и Emmet, а так же препроцессоры less или sass\scss, ну или для истинных богов фронтенда - stylus.
Скриншоты:
Скачать .torrent

Для того, чтобы скачать торрент-файл

Михалевич Сергей - Верстаем на 5+ (2013)

с нашего сайта, Вам необходимо Войти на сайт под своим логином! Если у Вас ещё нет логина, тогда Вам нужно сначала Зарегистрироваться!

Как скачивать? · Что такое торрент? · Рейтинг и ограничения

ntb

спасибо за раздачу))
Показать сообщения:    
Ответить на тему

Михалевич Сергей - Верстаем на 5+ (2013) скачать торрент (torrent), видеоуроки, тренинги, обучающее видео и видеокурсы

Текущее время: Сегодня 00:14

Часовой пояс: GMT + 4



Вы не можете начинать темы
Вы не можете отвечать на сообщения
Вы не можете редактировать свои сообщения
Вы не можете удалять свои сообщения
Вы не можете голосовать в опросах
Вы не можете прикреплять файлы к сообщениям
Вы не можете скачивать файлы