Кантор Илья - Курс профессионального JavaScript (2013)

Ответить на тему
 
Автор Сообщение

Yulya ®

-Кантор Илья - Курс профессионального JavaScript (2013)- Автор (режиссер): Кантор Илья
Название: Курс профессионального javaScript
Год выпуска: 2013
Жанр: Обучающие видеокурсы
Продолжительность: 24:00:00
Качество видео: PCRec
Видеокодек: MPEG4 Video (H264)
Битрейт видео: ~175kbps
Размер кадра: 1280 х 800
Аудиокодек: AAC
Битрейт аудио: 44100Hz stereo 132kbps
Описание:
Курс позволяет хорошо разобраться в языке JavaScript, получить знания и навыки написания хорошего JavaScript-кода.
Большое внимание на этом курсе уделяется стилю кода. Это очень важно. Хороший стиль кода позволяет писать более быстро, красиво и делать меньше ошибок. А на серьёзных проектах он просто необходим.
Курс нацелен на то, чтобы хорошо разобраться в языке JavaScript, получить знания и навыки написания грамотного JavaScript-кода, а также расширения существующего кода.
Возможно обучение с нуля, это в порядке вещей, но в этом случае вам нужно будет уделить особое внимание вводному видеокурсу.
Большое внимание на этом курсе уделяется стилю кода. Это очень важно. Хороший стиль кода позволяет писать более быстро, красиво и делать меньше ошибок. А на серьёзных проектах он просто необходим.

MediaInfo:

Видео
Идентификатор : 1
Формат : AVC
Формат/Информация : Advanced Video Codec
Профиль формата : [url=mailto:High@L3.2]High@L3.2[/url]
Параметр CABAC формата : Да
Параметр ReFrames формата : 4 кадра
Идентификатор кодека : avc1
Идентификатор кодека/Информация : Advanced Video Coding
Вид битрейта : Переменный
Битрейт : 175 Кбит/сек
Ширина : 1280 пикселей
Высота : 800 пикселей
Соотношение сторон : 16:10
Режим частоты кадров : Постоянный
Частота кадров : 30,000 кадров/сек
Цветовое пространство : YUV
Субдискретизация насыщенности : 4:2:0
Битовая глубина : 8 бит
Тип развёртки : Прогрессивная
Бит/(Пиксели*Кадры) : 0.006
Размер потока : 22,1 Мбайт (56%)
Библиотека кодирования : x264 core 120
Дата кодирования : UTC 2013-03-12 00:04:59
Дата пометки : UTC 2013-03-12 00:08:37
Основные цвета : BT.709
Характеристики трансфера : BT.709
Коэффициенты матрицы : BT.709
Аудио
Идентификатор : 2
Формат : AAC
Формат/Информация : Advanced Audio Codec
Профиль формата : LC
Идентификатор кодека : 40
Вид битрейта : Переменный
Битрейт : 132 Кбит/сек
Максимальный битрейт : 151 Кбит/сек
Каналы : 2 канала
Расположение каналов : Front: L R
Частота : 44,1 КГц
Метод сжатия : С потерями
Задержка видео : 67 мс.
Размер потока : 16,8 Мбайт (42%)
Скриншоты:
Скачать .torrent

Для того, чтобы скачать торрент-файл

Кантор Илья - Курс профессионального JavaScript (2013)

с нашего сайта, Вам необходимо Войти на сайт под своим логином! Если у Вас ещё нет логина, тогда Вам нужно сначала Зарегистрироваться!

Как скачивать? · Что такое торрент? · Рейтинг и ограничения

Показать сообщения:    
Ответить на тему

Кантор Илья - Курс профессионального JavaScript (2013) скачать торрент (torrent), видеоуроки, тренинги, обучающее видео и видеокурсы

Текущее время: Сегодня 13:04

Часовой пояс: GMT + 4



Вы не можете начинать темы
Вы не можете отвечать на сообщения
Вы не можете редактировать свои сообщения
Вы не можете удалять свои сообщения
Вы не можете голосовать в опросах
Вы не можете прикреплять файлы к сообщениям
Вы не можете скачивать файлы