Александр Сахно - Знакомство с Windows 8 (2012)

Ответить на тему
 
Автор Сообщение

Yulya ®

-Александр Сахно - Знакомство с Windows 8 (2012)- Автор (режиссер): Александр Сахно
Название: Знакомство с Windows 8
Год выпуска: 2012
Жанр: Обучающее видео
Продолжительность: 01:24:40
Качество видео: PCRec
Видеокодек: MPEG-4 (H.263)
Битрейт видео: ~1693 Кбит/сек
Размер кадра: 1024x768
Аудиокодек: AAC 2.0
Битрейт аудио: 90,9 Кбит/сек
Описание:
Вашему вниманию представлен видеокурс по операционной системе Windows 8. В этом видеокурсе Вы познакомитесь с операционной системой Windows 8 и оцените улучшенную графическую оболочку, скорость работы и защищенность Windows 8, научитесь ее устанавливать и настраивать, узнаете о новшествах и улучшениях в этой версии ОС. Данный видеокурс призван помочь любому пользователю, даже самому юному, освоить принцип работы этой ОС.

Содержание:

1. Установка Windows 8
2. Начальный экран в Windows 8
3. Улучшения в Windows 8
4. Новые возможности Windows 8
5. Изучаем Проводник в Windows 8

MI:

Видео
Идентификатор : 1
Формат : MPEG-4 Visual
Профиль формата : Simple@L1
Параметр BVOP формата : Нет
Параметр QPel формата : Нет
Параметр GMC формата : Без точки перехода
Параметр матрицы формата : Default (H.263)
Идентификатор кодека : 20
Битрейт : 1693 Кбит/сек
Ширина : 1024 пикселя
Высота : 768 пикселей
Соотношение сторон : 4:3
Режим частоты кадров : Постоянный
Частота кадров : 15,000 кадров/сек
Цветовое пространство : YUV
Субдискретизация насыщенности : 4:2:0
Битовая глубина : 8 бит
Тип развёртки : Прогрессивная
Метод сжатия : С потерями
Бит/(Пиксели*Кадры) : 0.143
Размер потока : 188 Мбайт (95%)
Библиотека кодирования : Lavc52.108.0
Язык : English
Аудио
Идентификатор : 2
Формат : AAC
Формат/Информация : Advanced Audio Codec
Профиль формата : LC
Идентификатор кодека : 40
Вид битрейта : Переменный
Битрейт : 90,9 Кбит/сек
Каналы : 2 канала
Расположение каналов : Front: L R
Частота : 44,1 КГц
Метод сжатия : С потерями
Размер потока : 10,1 Мбайт (5%)
Язык : English
Скачать .torrent

Для того, чтобы скачать торрент-файл

Александр Сахно - Знакомство с Windows 8 (2012)

с нашего сайта, Вам необходимо Войти на сайт под своим логином! Если у Вас ещё нет логина, тогда Вам нужно сначала Зарегистрироваться!

Как скачивать? · Что такое торрент? · Рейтинг и ограничения

Показать сообщения:    
Ответить на тему

Александр Сахно - Знакомство с Windows 8 (2012) скачать торрент (torrent), видеоуроки, тренинги, обучающее видео и видеокурсы

Текущее время: Сегодня 02:37

Часовой пояс: GMT + 4



Вы не можете начинать темы
Вы не можете отвечать на сообщения
Вы не можете редактировать свои сообщения
Вы не можете удалять свои сообщения
Вы не можете голосовать в опросах
Вы не можете прикреплять файлы к сообщениям
Вы не можете скачивать файлы