Alex Taranov - Моделирование мышки-трансформера в Cinema 4D (2013)

Ответить на тему
 
Автор Сообщение

Yulya ®

-Alex Taranov - Моделирование мышки-трансформера в Cinema 4D (2013)- Автор (режиссер): Alex Taranov
Название: Моделирование мышки-трансформера в Cinema4D
Год выпуска: 2013
Жанр: Обучающие видеокурсы
Продолжительность: 12:00:00
Качество видео: PCRec
Видеокодек: AVC
Битрейт видео: Переменный(899~6668 kb/s, 15 FPS)
Размер кадра: 1280х720
Аудиокодек: AAC
Битрейт аудио: Переменный(192~201 kb/s,2Ch,44100 Hz)
Описание:
Цикл лекций для начинающих моделирование в Cinema 4D R13.
Моделирование компьютерной мыши, которая будет трансформироваться в летательный агрегат.

MediaInfo:

Видео
Идентификатор : 1
Формат : AVC
Формат/Информация : Advanced Video Codec
Профиль формата : [url=mailto:High@L3.1]High@L3.1[/url]
Параметр CABAC формата : Да
Параметр ReFrames формата : 1 кадр
Идентификатор кодека : avc1
Идентификатор кодека/Информация : Advanced Video Coding
Продолжительность : 1 ч. 59 м.
Битрейт : 899 Кбит/сек
Максимальный битрейт : 6668 Кбит/сек
Ширина : 1280 пикселей
Высота : 720 пикселей
Соотношение сторон : 16:9
Режим частоты кадров : Постоянный
Частота кадров : 15,000 кадров/сек
Цветовое пространство : YUV
Субдискретизация насыщенности : 4:2:0
Битовая глубина : 8 бит
Тип развёртки : Прогрессивная
Бит/(Пиксели*Кадры) : 0.065
Размер потока : 768 Мбайт (82%)
Дата пометки : UTC 2013-05-18 12:43:16
Аудио
Идентификатор : 2
Формат : AAC
Формат/Информация : Advanced Audio Codec
Профиль формата : LC
Идентификатор кодека : 40
Продолжительность : 1 ч. 59 м.
Вид битрейта : Переменный
Битрейт : 192 Кбит/сек
Максимальный битрейт : 201 Кбит/сек
Каналы : 2 канала
Расположение каналов : Front: L R
Частота : 44,1 КГц
Метод сжатия : С потерями
Размер потока : 164 Мбайт (18%)
Заголовок : IsoMedia File Produced by Google, 5-11-2011
Дата кодирования : UTC 2013-05-18 12:41:59
Дата пометки : UTC 2013-05-18 12:43:16
Скачать .torrent

Для того, чтобы скачать торрент-файл

Alex Taranov - Моделирование мышки-трансформера в Cinema 4D (2013)

с нашего сайта, Вам необходимо Войти на сайт под своим логином! Если у Вас ещё нет логина, тогда Вам нужно сначала Зарегистрироваться!

Как скачивать? · Что такое торрент? · Рейтинг и ограничения

Показать сообщения:    
Ответить на тему

Alex Taranov - Моделирование мышки-трансформера в Cinema 4D (2013) скачать торрент (torrent), видеоуроки, тренинги, обучающее видео и видеокурсы

Текущее время: Сегодня 16:29

Часовой пояс: GMT + 4



Вы не можете начинать темы
Вы не можете отвечать на сообщения
Вы не можете редактировать свои сообщения
Вы не можете удалять свои сообщения
Вы не можете голосовать в опросах
Вы не можете прикреплять файлы к сообщениям
Вы не можете скачивать файлы