Алексей Меркулов - Экспресс-курс по AutoCAD 2012 (2012)

Ответить на тему
 
Автор Сообщение

Yulya ®

-Алексей Меркулов - Экспресс-курс по AutoCAD 2012 (2012)- Автор (режиссер): Алексей Меркулов
Название: Экспресс-курс по AutoCAD 212
Год выпуска: 2012
Жанр: Видеоурок по инженерным программам
Язык: Русский
Продолжительность: 03:10:00
Описание:
Пройдя Видеокурс Вы:
Узнаете, где и как скачать бесплатную версию программы AutoCAD! И установите её.
Начнете Быстро и Грамотно создавать чертежи любой сложности. Научитесь создавать динамические блоки.
Очень подробно разберетесь с Текстом, Размерами, Линиями (и Мультилиниями), Штриховками, Масштабами. Разберетесь с оформлением пространства Листа.
А затем научитесь Все чертежи распечатывать за один клик!
Качество видео: PCRec
Формат видео: MP4
Видео: Advanced Video Codec, 1280х720, 16:9, Frame rate : 10.000 fps
Аудио: Advanced Video Codec, 24 bits, Bit rate : ~192 Кбит/сек

Содержание:

Важное вступление Настройка для просмотра; концепции курса AutoCAD
Урок 1. Обзор интерфейса AutoCAD
Урок 2. Создание примитивов. Создаем координатную сетку осей.
Урок 3. Создание слоев. СПДС оси.
Урок 4. Тонкости мультилиний. Создание 2-х слойных стен.
Урок 5. Прямая, полилиния, смещение, зеркало. Создаем перегородки.
Урок 6. Штриховки
Урок 7. Определение и вхождение блоков
Урок 8. Введение в динамические блоки. Создаем двери.
Урок 9. Создание дин. блоков. Делаем хитрые окна.
Урок 10. Создание палитр. Расставляем мебель.
Урок 11. Конфликты штриховок. Создаем фасад

MI

Общее
Полное имя : C:\Users\Dmitriy\Downloads\AUTOCAD_Merkulov_Course\00.Важное вступление.mp4
Формат : MPEG-4
Профиль формата : Base Media / Version 2
Идентификатор кодека : mp42
Размер файла : 8,71 Мбайт
Продолжительность : 2 м. 41 с.
Режим общего битрейта : Переменный
Общий поток : 452 Кбит/сек
Дата кодирования : UTC 2012-10-21 17:21:52
Дата пометки : UTC 2012-10-21 17:21:52
gsst : 0
gstd : 161750
gssd : B4A7D0861HH1351180350512248
gshh : o-o---preferred---sn-5hn7sner---v16---lscache4.c.youtube.com
Видео
Идентификатор : 1
Формат : AVC
Формат/Информация : Advanced Video Codec
Профиль формата : [url=mailto:High@L3.1]High@L3.1[/url]
Параметр CABAC формата : Да
Параметр ReFrames формата : 1 кадр
Параметр GOP формата : M=1, N=50
Идентификатор кодека : avc1
Идентификатор кодека/Информация : Advanced Video Coding
Продолжительность : 2 м. 41 с.
Битрейт : 258 Кбит/сек
Максимальный битрейт : 2563 Кбит/сек
Ширина : 1280 пикселей
Высота : 720 пикселей
Соотношение сторон : 16:9
Режим частоты кадров : Постоянный
Частота кадров : 10,000 кадров/сек
Цветовое пространство : YUV
Субдискретизация насыщенности : 4:2:0
Битовая глубина : 8 бит
Тип развёртки : Прогрессивная
Бит/(Пиксели*Кадры) : 0.028
Размер потока : 4,98 Мбайт (57%)
Дата пометки : UTC 2012-10-21 17:21:52
Аудио
Идентификатор : 2
Формат : AAC
Формат/Информация : Advanced Audio Codec
Профиль формата : LC
Идентификатор кодека : 40
Продолжительность : 2 м. 41 с.
Вид битрейта : Переменный
Битрейт : 192 Кбит/сек
Максимальный битрейт : 201 Кбит/сек
Каналы : 2 канала
Расположение каналов : Front: L R
Частота : 44,1 КГц
Метод сжатия : С потерями
Размер потока : 3,70 Мбайт (42%)
Заголовок : IsoMedia File Produced by Google, 5-11-2011
Дата кодирования : UTC 2012-10-21 17:21:52
Дата пометки : UTC 2012-10-21 17:21:52
Скриншоты:
Скачать .torrent

Для того, чтобы скачать торрент-файл

Алексей Меркулов - Экспресс-курс по AutoCAD 2012 (2012)

с нашего сайта, Вам необходимо Войти на сайт под своим логином! Если у Вас ещё нет логина, тогда Вам нужно сначала Зарегистрироваться!

Как скачивать? · Что такое торрент? · Рейтинг и ограничения

Показать сообщения:    
Ответить на тему

Алексей Меркулов - Экспресс-курс по AutoCAD 2012 (2012) скачать торрент (torrent), видеоуроки, тренинги, обучающее видео и видеокурсы

Текущее время: Сегодня 08:00

Часовой пояс: GMT + 4



Вы не можете начинать темы
Вы не можете отвечать на сообщения
Вы не можете редактировать свои сообщения
Вы не можете удалять свои сообщения
Вы не можете голосовать в опросах
Вы не можете прикреплять файлы к сообщениям
Вы не можете скачивать файлы