Последнее из V.I.P.-раздела

19-Ноя-19 06:59
19-Ноя-19 06:58
19-Ноя-19 06:54
19-Ноя-19 06:49
19-Ноя-19 06:47
19-Ноя-19 06:46
19-Ноя-19 06:37
19-Ноя-19 06:35
19-Ноя-19 06:30
19-Ноя-19 06:25

Ксения Комендацкая - Снимаем «Love Story» / Детский фотопортрет: идеи и их воплощение (2012)

Ответить на тему
 
Автор Сообщение

Yulya ®

-Ксения Комендацкая - Снимаем «Love Story» / Детский фотопортрет: идеи и их воплощение (2012)- Автор (режиссер): Ксения Комендацкая
Название: Снимаем «Love Story» / Детский фотопортрет: идеи и их воплощение
Год выпуска: 2012
Жанр: Работа с фотографией
Общая продолжительность: 03:52:23
Качество видео: PCRec
Видеокодек: XviD
Битрейт видео: ~1511Kbps
Размер кадра: 1280x720
Аудиокодек: MP3
Битрейт аудио: 226 Kbps
Описание:Из данного видеокурса, Вы подчерпнёте много полезной информации и практических советов с примерами фотографий. Вы узнаете, какие параметры съемки установливать на фотоаппарате для получения высококачественных фотографий, узнаете о простых приемах и идеях по съемке влюбленной пары, про особенности создания «Истории Любви» через серию фотографий. Так же в представленном видеокурсе Вас ждут практические советы по подготовке к её съемке и набор готовых идей для съемки оригинальной «Истории Любви (Love Story)», и множество других профессиональных фото-секретов.
Приведённые советы и рекомендации Вы сможете тут же применить на практике и получить красивые фотографии!

Содержание видеокурса:

Часть 1 - Параметры съемки в разных жанрах фотографии:
• Что такое диафрагма, выдержка, iso и как они влияют на результат съемки;
• Какие параметры фотоаппарата нужно выставлять при съемке портрета, пейзажа, репортажа или предметки;
• Как размыть фон и остановить движение;
• Как избежать появления цифрового шума на фотографии;
• Как снимать при естественном освещении.
Часть 2 - Работа с парой: снимаем «Историю Любви (Love Story)»:
• История любви в фотографиях: от одного снимка к серии
• Из чего состоит успешная love story и чего ждут ваши клиенты
• Технические особенности и приемы съемки влюбленной пары
• Композиция и удачные позы для съемки love story
• Подготовка и проведение съемки (выбор места, времени, проработка идеи, подготовка реквизита, работа с парой)
• Несколько готовых идей для съемки влюбленной пары
Часть 3 - Детский фотопортрет: идеи и их воплощение:
• Особенности работы с детьми: новорожденные, дошкольники, младшие школьники, средняя школа
• Секреты хорошего детского портрета
• Процесс создания образов: идея, подготовка, воплощение
• Где брать идеи
• Как подготовить реквизит
• Как работать с моделью на съемке
• Галерея готовых идей для детской съемки: новорожденные, дети 3-13 лет

MediaInfo:

General
Complete name : Детский портрет- идеи и их воплощение.avi
Format : AVI
Format/Info : Audio Video Interleave
File size : 956 MiB
Duration : 1h 4mn
Overall bit rate : 2 072 Kbps
Writing application : Lavf52.93.0
Video
ID : 0
Format : xvid
Codec ID : xvid
Duration : 1h 4mn
Bit rate : 1 805 Kbps
Width : 1 280 pixels
Height : 720 pixels
Display aspect ratio : 16:9
Frame rate : 15.000 fps
Bits/(Pixel*Frame) : 0.131
Stream size : 833 MiB (87%)
Audio
ID : 1
Format : MPEG Audio
Format version : Version 1
Format profile : Layer 3
Mode : Joint stereo
Mode extension : MS Stereo
Codec ID : 55
Codec ID/Hint : MP3
Duration : 1h 4mn
Bit rate mode : Constant
Bit rate : 256 Kbps
Channel(s) : 2 channels
Sampling rate : 44.1 KHz
Compression mode : Lossy
Stream size : 118 MiB (12%)
Alignment : Aligned on interleaves
Interleave, duration : 26 ms (0.39 video frame)
Writing library : LAME3.98.4
Скачать .torrent

Для того, чтобы скачать торрент-файл

Ксения Комендацкая - Снимаем «Love Story» / Детский фотопортрет: идеи и их воплощение (2012)

с нашего сайта, Вам необходимо Войти на сайт под своим логином! Если у Вас ещё нет логина, тогда Вам нужно сначала Зарегистрироваться!

Как скачивать? · Что такое торрент? · Рейтинг и ограничения

Показать сообщения:    
Ответить на тему

Ксения Комендацкая - Снимаем «Love Story» / Детский фотопортрет: идеи и их воплощение (2012) скачать торрент (torrent), видеоуроки, тренинги, обучающее видео и видеокурсы

Текущее время: Сегодня 00:51

Часовой пояс: GMT + 4



Вы не можете начинать темы
Вы не можете отвечать на сообщения
Вы не можете редактировать свои сообщения
Вы не можете удалять свои сообщения
Вы не можете голосовать в опросах
Вы не можете прикреплять файлы к сообщениям
Вы не можете скачивать файлы