Алексей Баленко - Первый шаг к компьютеру (2013)

Ответить на тему
 
Автор Сообщение

Yulya ®

-Алексей Баленко - Первый шаг к компьютеру (2013)- Автор (режиссер): Алексей Баленко
Название: Первый шаг к компьютеру
Год выпуска: 2013
Жанр: Обучающий видеокурс
Продолжительность: 2:35:53
Качество видео: PCRec
Видеокодек: AVC
Битрейт видео: ~1 828 Kbps 25.000 fps
Размер кадра: 720x576
Аудиокодек: MP3
Битрейт аудио: 44100Hz stereo 256kbps
Описание:
В видео курсе простым понятным языком изложены основы ПК, базовые понятия ОС Windows.
Особое внимание уделено интернету. Обучение компьютеру производиться легко и непринужденно. В конце урока – рекомендации автора.
Курс рассчитан на людей, у которых знаний в этой области – полный ноль.
У вас есть младшие братики или сестрички дошкольного возраста, у которых пока еще нет уроков информатики?
Есть друзья или знакомые, которые на эту информатику «облокотились», а теперь жалеют?
Есть мама, папа, бабушки и дедушки, у которых в школьной жизни информатики,
да и компьютеров вовсе не было. И порой достают: покажи, найди, зайди и т.д. ?
Так что качаем, заливаем на диск или флешку и дарим.

Дополнительная информация:

Содержание видео курса:
Урок 1 – Обзор ПК.
Урок 2 – Мышка и клавиатура.
Урок 3 – Папки и файлы.
Урок 4 – Рабочий стол.
Урок 5 – Работа с папками.
Урок 6 – Свойства окна.
Урок 7 – Свойства окна, продолжение.
Урок 8 – Интернет.
Урок 9 – Окно браузера.
Урок 10 – Электронная почта.
Урок 11 – Программа Skype.
Урок 12 – Социальные сети и YouTube.

MI

Видео
Идентификатор : 0
Формат : AVC
Формат/Информация : Advanced Video Codec
Профиль формата : [url=mailto:High@L3.0]High@L3.0[/url]
Параметр CABAC формата : Да
Параметр ReFrames формата : 3 кадра
Идентификатор кодека : H264
Битрейт : 708 Кбит/сек
Номинальный битрейт : 1828 Кбит/сек
Ширина : 720 пикселей
Высота : 576 пикселей
Соотношение сторон : 4:3
Режим частоты кадров : Переменный
Частота кадров : 25,000 кадров/сек
Стандарт вещания : PAL
Цветовое пространство : YUV
Субдискретизация насыщенности : 4:2:0
Битовая глубина : 8 бит
Тип развёртки : Прогрессивная
Бит/(Пиксели*Кадры) : 0.068
Размер потока : 22,6 Мбайт (72%)
Библиотека кодирования : x264 core 112
Настройки программы : cabac=1 / ref=3 / deblock=1:0:0 / analyse=0x3:0x113 / me=hex / subme=7 / psy=1 / psy_rd=1.00:0.00 / mixed_ref=1 / me_range=16 / chroma_me=1 / trellis=1 / 8x8dct=1 / cqm=0 / deadzone=21,11 / fast_pskip=1 / chroma_qp_offset=-2 / threads=1 / sliced_threads=0 / nr=0 / decimate=1 / interlaced=0 / constrained_intra=0 / bframes=3 / b_pyramid=0 / b_adapt=1 / b_bias=0 / direct=1 / weightb=1 / open_gop=0 / weightp=2 / keyint=250 / keyint_min=25 / scenecut=40 / intra_refresh=0 / rc_lookahead=40 / rc=abr / mbtree=1 / bitrate=1828 / ratetol=1.0 / qcomp=0.60 / qpmin=10 / qpmax=51 / qpstep=4 / ip_ratio=1.41 / aq=1:1.00
Аудио
Идентификатор : 1
Формат : MPEG Audio
Версия формата : Version 1
Профиль формата : Layer 3
Режим : Joint stereo
Расширение режима : MS Stereo
Идентификатор кодека : 55
Идентификатор кодека/Подсказка : MP3
Вид битрейта : Постоянный
Битрейт : 256 Кбит/сек
Каналы : 2 канала
Частота : 44,1 КГц
Метод сжатия : С потерями
Размер потока : 8,18 Мбайт (26%)
Выравнивание : Соединение по промежуткам
Продолжительность промежутка : 26 мс. (0,65 видеокадр)
Библиотека кодирования : LAME3.98.4
Скачать .torrent

Для того, чтобы скачать торрент-файл

Алексей Баленко - Первый шаг к компьютеру (2013)

с нашего сайта, Вам необходимо Войти на сайт под своим логином! Если у Вас ещё нет логина, тогда Вам нужно сначала Зарегистрироваться!

Как скачивать? · Что такое торрент? · Рейтинг и ограничения

Показать сообщения:    
Ответить на тему

Алексей Баленко - Первый шаг к компьютеру (2013) скачать торрент (torrent), видеоуроки, тренинги, обучающее видео и видеокурсы

Текущее время: Сегодня 02:55

Часовой пояс: GMT + 4



Вы не можете начинать темы
Вы не можете отвечать на сообщения
Вы не можете редактировать свои сообщения
Вы не можете удалять свои сообщения
Вы не можете голосовать в опросах
Вы не можете прикреплять файлы к сообщениям
Вы не можете скачивать файлы