Последнее из V.I.P.-раздела

19-Ноя-19 06:59
19-Ноя-19 06:58
19-Ноя-19 06:54
19-Ноя-19 06:49
19-Ноя-19 06:47
19-Ноя-19 06:46
19-Ноя-19 06:37
19-Ноя-19 06:35
19-Ноя-19 06:30
19-Ноя-19 06:25

Юрий Лебедев - Windows PowerShell 2.0 (2010-2012)

Ответить на тему
 
Автор Сообщение

Yulya ®

-Юрий Лебедев - Windows PowerShell 2.0 (2010-2012)- Автор (режиссер): Юрий Лебедев
Название: Windows PowerShell 2.0
Год выпуска: 2010-2012
Жанр: Администрирование
Продолжительность: 12:21:31
Качество видео: PCRec
Видеокодек: MPEG4, AVC
Битрейт видео: ~50,5-384 кбит/сек
Размер кадра: 1024x768
Аудиокодек: AAC
Битрейт аудио: 53,6 кбит/сек 2 канала 44,1 КГц
Описание:
Windows PowerShell — расширяемое средство автоматизации от Microsoft, состоящее из оболочки с интерфейсом командной строки и сопутствующего языка сценариев. Windows PowerShell также предоставляет механизм встраивания, благодаря которому исполняемые компоненты PowerShell могут быть встроены в другие приложения. Эти приложения затем могут использовать функциональность PowerShell для реализации различных операций, включая предоставляемые через графический интерфейс. Уже сейчас большинство серверных приложений Microsoft на платформе Windows используют PowerShell.
Данные видео-уроки рассказывают о Windows PowerShell 2.0, начиная с азов. Демонcтрации проходят на Windows 7 и Windows Server 2008 R2.

Содержание:

1. Инструменты Windows PowerShell 2.0
2. Сценарии Windows PowerShell 2.0
3. Windows PowerShell 2.0 и CMD
4. Переменные в PowerShell 2.0
5. Форматирование вывода в Windows PowerShell 2.0
6. Обзор встроенных оснасток Windows PowerShell 2.0
7. Обзор встроенных поставщиков Windows PowerShell 2.0
8. Обзор модулей Windows PowerShell 2.0
9. Удаленная работа с Windows PowerShell 2.0
10. Автоматизация удаленного выполнения команд в Windows PowerShell 2.0
11. Фоновые задания в Windows PowerShell 2.0
12. Восстановление системы при помощи Windows PowerShell 2.0
13. Установка PowerShell 2.0 на Server Core
14. Арифместические действия в Windows PowerShell 2.0
15. Присваивание в Windows PowerShell 2.0
16. Сравнение чисел в Windows PowerShell 2.0.Full
17. Сравнение строк в Windows PowerShell 2.0.Full
18. Подстановочные знаки в Windows PowerShell 2.0.Full
19. Логические операторы в Windows PowerShell 2.0.Full
20. Командлеты для работы с переменными в Windows PowerShell
21. Тиражирование кода в Windows PowerShell 2.0
22. Управление областью действия переменных в Windows PowerShell 2.0
23. Управление переменными окружения в Windows PowerShell 2.0
24. Кавычки в Windows PowerShell 2.0
25. ESCAPE-символы в Windows PowerShell 2.0
26. Многострочные переменные в Windows PowerShell 2.0
27. Обработка строк в Windows PowerShell 2.0
28. Форматирование чисел и строк в Windows PowerShell 2.0
29. Одномерные массивы в Windows PowerShell 2.0
30. Работа с одномерными массивами в Windows PowerShell 2.0
31. Многомерные массивы в Windows PowerShell 2.0
32. Управление псевдонимами в Windows PowerShell 2.0
33. Функции в Windows PowerShell 2.0
34. Автоматические переменные в Windows PowerShell 2.0
35. Фильтры в Windows PowerShell 2.0
36. Встроенные функции в Windows PowerShell 2.0
37. Объекты в Windows PowerShell 2.0
38. Работа с объектами в Windows PowerShell 2.0
39. COM-объекты в Windows PowerShell 2.0
40. Объекты .NET Framework в Windows PowerShell 2.0
41. WMI объекты в Windows PowerShell 2.0
42. Профили в Windows PowerShell 2.0
43. Протоколирование в Windows PowerShell 2.0
44. Транзакции в Windows PowerShell 2.0
45. Вложенные транзакции в Windows PowerShell 2.0
46. Условные конструкции в Windows PowerShell 2.0
47. Циклы в Windows PowerShell 2.0

Min:

Complete name : Windows PowerShell 2.0
Format : MPEG-4
Format profile : Base Media / Version 2
Codec ID : mp42
File size : 9.85 MiB
Duration : 11mn 42s
Overall bit rate : 118 Kbps
Encoded date : UTC 2011-06-14 16:07:05
Tagged date : UTC 2011-06-14 16:07:05
Video
ID : 1
Format : AVC
Format/Info : Advanced Video Codec
Format profile : [url=mailto:High@L3.1]High@L3.1[/url]
Format settings, CABAC : Yes
Format settings, ReFrames : 4 frames
Codec ID : avc1
Codec ID/Info : Advanced Video Coding
Duration : 11mn 42s
Source duration : 11mn 42s
Bit rate mode : Variable
Bit rate : 50.5 Kbps
Width : 1 024 pixels
Height : 768 pixels
Display aspect ratio : 4:3
Frame rate mode : Constant
Frame rate : 15.000 fps
Color space : YUV
Chroma subsampling : 4:2:0
Bit depth : 8 bits
Scan type : Progressive
Bits/(Pixel*Frame) : 0.004
Stream size : 4.23 MiB (43%)
Source stream size : 5.19 MiB (53%)
Language : English
Encoded date : UTC 2011-06-14 16:07:05
Tagged date : UTC 2011-06-14 16:07:05
mdhd_Duration : 702604
Color primaries : BT.709
Transfer characteristics : BT.709
Matrix coefficients : BT.709
Audio
ID : 2
Format : AAC
Format/Info : Advanced Audio Codec
Format profile : LC
Codec ID : 40
Duration : 11mn 42s
Source duration : 11mn 42s
Bit rate mode : Constant
Bit rate : 53.6 Kbps
Channel count : 2 channels
Channel positions : Front: L R
Sampling rate : 44.1 KHz
Compression mode : Lossy
Stream size : 4.49 MiB (46%)
Source stream size : 4.49 MiB (46%)
Language : English
Encoded date : UTC 2011-06-14 16:07:05
Tagged date : UTC 2011-06-14 16:07:05
mdhd_Duration : 702472

Max:

Complete name : Windows PowerShell 2.0
Format : MPEG-4
Format profile : Base Media / Version 2
Codec ID : mp42
File size : 30.9 MiB
Duration : 10mn 3s
Overall bit rate : 430 Kbps
Encoded date : UTC 2012-05-23 10:52:30
Tagged date : UTC 2012-05-23 10:52:30
Video
ID : 1
Format : AVC
Format/Info : Advanced Video Codec
Format profile : [url=mailto:High@L3.1]High@L3.1[/url]
Format settings, CABAC : Yes
Format settings, ReFrames : 4 frames
Codec ID : avc1
Codec ID/Info : Advanced Video Coding
Duration : 10mn 3s
Source duration : 10mn 3s
Bit rate mode : Variable
Bit rate : 384 Kbps
Width : 1 024 pixels
Height : 768 pixels
Display aspect ratio : 4:3
Frame rate mode : Constant
Frame rate : 15.000 fps
Color space : YUV
Chroma subsampling : 4:2:0
Bit depth : 8 bits
Scan type : Progressive
Bits/(Pixel*Frame) : 0.030
Stream size : 25.2 MiB (82%)
Source stream size : 26.9 MiB (87%)
Language : English
Encoded date : UTC 2012-05-23 10:52:30
Tagged date : UTC 2012-05-23 10:52:30
mdhd_Duration : 603362
Color primaries : BT.709
Transfer characteristics : BT.709
Matrix coefficients : BT.709
Audio
ID : 2
Format : AAC
Format/Info : Advanced Audio Codec
Format profile : LC
Codec ID : 40
Duration : 10mn 3s
Source duration : 10mn 3s
Bit rate mode : Constant
Bit rate : 53.6 Kbps
Channel count : 2 channels
Channel positions : Front: L R
Sampling rate : 44.1 KHz
Compression mode : Lossy
Stream size : 3.85 MiB (12%)
Source stream size : 3.85 MiB (12%)
Language : English
Encoded date : UTC 2012-05-23 10:52:30
Tagged date : UTC 2012-05-23 10:52:30
mdhd_Duration : 603321
Сайт автора: http://lebedevum.blogspot.ru
Канал YouTube: http://www.youtube.com/user/LebedevUM
Скачать .torrent

Для того, чтобы скачать торрент-файл

Юрий Лебедев - Windows PowerShell 2.0 (2010-2012)

с нашего сайта, Вам необходимо Войти на сайт под своим логином! Если у Вас ещё нет логина, тогда Вам нужно сначала Зарегистрироваться!

Как скачивать? · Что такое торрент? · Рейтинг и ограничения

Показать сообщения:    
Ответить на тему

Юрий Лебедев - Windows PowerShell 2.0 (2010-2012) скачать торрент (torrent), видеоуроки, тренинги, обучающее видео и видеокурсы

Текущее время: Сегодня 11:55

Часовой пояс: GMT + 4



Вы не можете начинать темы
Вы не можете отвечать на сообщения
Вы не можете редактировать свои сообщения
Вы не можете удалять свои сообщения
Вы не можете голосовать в опросах
Вы не можете прикреплять файлы к сообщениям
Вы не можете скачивать файлы