Евгений Попов - Курс «Evernote — Мастер» (7 видеоуроков) (2013)

Ответить на тему
 
Автор Сообщение

Yulya ®

-Евгений Попов - Курс «Evernote — Мастер» (7 видеоуроков) (2013)- Автор (режиссер): Евгений Попов
Название: Курс «Evernote — Мастер» (7 видеоуроков)
Год выпуска: 2013
Жанр: Обучающий видеокурс
Продолжительность: 00:50:38
Качество видео: PCRec
Видеокодек: AVC
Битрейт видео: ~10fps 226kbps
Размер кадра: 1280x720
Аудиокодек: AAC
Битрейт аудио: 44100Hz stereo 93kbps
Описание:
Первый обучающий курс по Evernote на русском языке
Эти семь уроков помогут вам быстро установить Evernote и научиться использовать базовые функции этой программы. По сути эта программа позволяет создать «маленький личный Интернет», в котором есть только интересная и полезная для вас информация. При этом данная информация всегда под рукой, а поиск нужных данных занимает обычно считанные секунды. Идеальное решение для тех, кто загоняется по продуктивности, любит во всем порядок и ненавидит тратить время на поиск той самой бумажки, на которую когда-то записал важные данные.

Дополнительная информация

Главный лозунг этой программы — ПОМНИ ВСЁ. А три главных принципа таковы:
1. Запоминайте и сохраняйте всё, что вам нужно, в одном месте (текст, фото, электронные книги, mp3-файлы)
2. Имейте всю необходимую информацию всегда под рукой (поставьте приложение на все свои устройства, и данные будут синхронизироваться автоматически)
3. Быстро находите нужные данные (мощная система поиска по текстам, тегам и даже по отсканированным документам)

MI

Видео
Идентификатор : 1
Формат : AVC
Формат/Информация : Advanced Video Codec
Профиль формата : [url=mailto:High@L3.1]High@L3.1[/url]
Параметр CABAC формата : Да
Параметр ReFrames формата : 4 кадра
Параметр GOP формата : M=1, N=50
Идентификатор кодека : avc1
Идентификатор кодека/Информация : Advanced Video Coding
Вид битрейта : Переменный
Битрейт : 226 Кбит/сек
Ширина : 1280 пикселей
Высота : 720 пикселей
Соотношение сторон : 16:9
Режим частоты кадров : Постоянный
Частота кадров : 10,000 кадров/сек
Цветовое пространство : YUV
Субдискретизация насыщенности : 4:2:0
Битовая глубина : 8 бит
Тип развёртки : Прогрессивная
Бит/(Пиксели*Кадры) : 0.025
Размер потока : 10,0 Мбайт (70%)
Размер потока оригинала : 10,0 Мбайт (70%)
Язык : English
Дата кодирования : UTC 2013-06-05 04:09:58
Дата пометки : UTC 2013-06-05 04:09:58
mdhd_Duration : 372514
Основные цвета : BT.709
Характеристики трансфера : BT.709
Коэффициенты матрицы : BT.709
Аудио
Идентификатор : 2
Формат : AAC
Формат/Информация : Advanced Audio Codec
Профиль формата : LC
Идентификатор кодека : 40
Вид битрейта : Постоянный
Битрейт : 93,6 Кбит/сек
Каналы : 2 канала
Расположение каналов : Front: L R
Частота : 44,1 КГц
Метод сжатия : С потерями
Размер потока : 4,16 Мбайт (29%)
Размер потока оригинала : 4,16 Мбайт (29%)
Язык : English
Дата кодирования : UTC 2013-06-05 04:09:58
Дата пометки : UTC 2013-06-05 04:09:58
mdhd_Duration : 372503
Скачать .torrent

Для того, чтобы скачать торрент-файл

Евгений Попов - Курс «Evernote — Мастер» (7 видеоуроков) (2013)

с нашего сайта, Вам необходимо Войти на сайт под своим логином! Если у Вас ещё нет логина, тогда Вам нужно сначала Зарегистрироваться!

Как скачивать? · Что такое торрент? · Рейтинг и ограничения

Igiryan2015

Интересно и познавательно, вот только уроки не все.
А Вы знали Юля?)
Показать сообщения:    
Ответить на тему

Евгений Попов - Курс «Evernote — Мастер» (7 видеоуроков) (2013) скачать торрент (torrent), видеоуроки, тренинги, обучающее видео и видеокурсы

Текущее время: Сегодня 20:44

Часовой пояс: GMT + 4



Вы не можете начинать темы
Вы не можете отвечать на сообщения
Вы не можете редактировать свои сообщения
Вы не можете удалять свои сообщения
Вы не можете голосовать в опросах
Вы не можете прикреплять файлы к сообщениям
Вы не можете скачивать файлы