Личный шпион для вашего компьютера (2013)

Ответить на тему
 
Автор Сообщение

Yulya ®

-Личный шпион для вашего компьютера (2013)- Название: Личный шпион для вашего компьютера
Год выпуска: 2013
Жанр: Обучающее видео
Продолжительность: 00:10:25
Качество видео: PCRec
Видеокодек: mpeg2video
Битрейт видео: ~3909 Кбит/сек
Размер кадра: 1280x720@1280х960
Аудиокодек: MP2 2,0
Битрейт аудио: 192 Кбит/сек
Описание:
Вам необходимо узнать, что делает ваш ребёнок за компьютером? Нужен родительский контроль? Вы не уверены, что сотрудники Вашей фирмы занимаются делами на рабочем месте? Вам нужно проследить, что делали за Вашим компьютером в Ваше отсутствие? При работе Вам необходимо записывать все произведённые действия? Хотите узнать с кем общается в интернете Ваш супруг или супруга? Кому он или она отправляет сообщения вконтакте или "однокашниках"?

MI:

Видео
Идентификатор : 224 (0xE0)
Формат : MPEG Video
Версия формата : Version 2
Профиль формата : Main@Main
Параметр BVOP формата : Да
Параметр матрицы формата : По умолчанию
Параметр GOP формата : M=3, N=12
Продолжительность : 10 м.
Вид битрейта : Переменный
Битрейт : 3909 Кбит/сек
Максимальный битрейт : 2519 Мбит/сек
Ширина : 1280 пикселей
Высота : 720 пикселей
Соотношение сторон : 4:3
Частота кадров : 25,000 кадров/сек
Цветовое пространство : YUV
Субдискретизация насыщенности : 4:2:0
Битовая глубина : 8 бит
Тип развёртки : Прогрессивная
Метод сжатия : С потерями
Бит/(Пиксели*Кадры) : 0.170
TimeCode_FirstFrame : 00:00:00:00
TimeCode_Source : Group of pictures header
Размер потока : 292 Мбайт (93%)
Аудио
Идентификатор : 192 (0xC0)
Формат : MPEG Audio
Версия формата : Version 1
Профиль формата : Layer 2
Продолжительность : 10 м.
Вид битрейта : Постоянный
Битрейт : 192 Кбит/сек
Каналы : 2 канала
Частота : 48,0 КГц
Метод сжатия : С потерями
Задержка видео : -4 мс.
Размер потока : 14,3 Мбайт (5%)
Скачать .torrent

Для того, чтобы скачать торрент-файл

Личный шпион для вашего компьютера (2013)

с нашего сайта, Вам необходимо Войти на сайт под своим логином! Если у Вас ещё нет логина, тогда Вам нужно сначала Зарегистрироваться!

Как скачивать? · Что такое торрент? · Рейтинг и ограничения

Показать сообщения:    
Ответить на тему

Личный шпион для вашего компьютера (2013) скачать торрент (torrent), видеоуроки, тренинги, обучающее видео и видеокурсы

Текущее время: Сегодня 02:30

Часовой пояс: GMT + 4



Вы не можете начинать темы
Вы не можете отвечать на сообщения
Вы не можете редактировать свои сообщения
Вы не можете удалять свои сообщения
Вы не можете голосовать в опросах
Вы не можете прикреплять файлы к сообщениям
Вы не можете скачивать файлы