Валентин Братский - Photoshop CC. Урок по созданию креативного коллажа (2013)

Ответить на тему
 
Автор Сообщение

Yulya ®

- Photoshop CC. Урок по созданию креативного коллажа [2013] PCRec- Название: Photoshop CC. Урок по созданию креативного коллажа
Год выпуска: 2013
Жанр: Обучающее видео
Продолжительность: 00:54:28
Качество видео: PCRec
Видеокодек: AVC
Битрейт видео: ~807 Кбит/сек
Размер кадра: 1280x720
Аудиокодек: AAC 2.0
Битрейт аудио: 192 Кбит/сек
Описание:
Adobe Photoshop CC - новая, следующая за CS6 версия программы для обработки растровой графики. Adobe Photoshop позволяет как создавать новые изображения, так и редактировать их. Урок по Photoshop CC, создаём креативный коллаж

MI:

Видео
Идентификатор : 1
Формат : AVC
Формат/Информация : Advanced Video Codec
Профиль формата : [url=mailto:High@L3.1]High@L3.1[/url]
Параметр CABAC формата : Да
Параметр ReFrames формата : 1 кадр
Идентификатор кодека : avc1
Идентификатор кодека/Информация : Advanced Video Coding
Продолжительность : 54 м.
Битрейт : 807 Кбит/сек
Максимальный битрейт : 5785 Кбит/сек
Ширина : 1280 пикселей
Высота : 720 пикселей
Соотношение сторон : 16:9
Режим частоты кадров : Постоянный
Частота кадров : 15,000 кадров/сек
Цветовое пространство : YUV
Субдискретизация насыщенности : 4:2:0
Битовая глубина : 8 бит
Тип развёртки : Прогрессивная
Бит/(Пиксели*Кадры) : 0.058
Размер потока : 314 Мбайт (81%)
Дата пометки : UTC 2013-06-26 20:16:07
Аудио
Идентификатор : 2
Формат : AAC
Формат/Информация : Advanced Audio Codec
Профиль формата : LC
Идентификатор кодека : 40
Продолжительность : 54 м.
Вид битрейта : Переменный
Битрейт : 192 Кбит/сек
Максимальный битрейт : 201 Кбит/сек
Каналы : 2 канала
Расположение каналов : Front: L R
Частота : 44,1 КГц
Метод сжатия : С потерями
Размер потока : 74,8 Мбайт (19%)
Заголовок : IsoMedia File Produced by Google, 5-11-2011
Дата кодирования : UTC 2013-06-26 20:15:32
Дата пометки : UTC 2013-06-26 20:16:07
Скачать .torrent

Для того, чтобы скачать торрент-файл

Валентин Братский - Photoshop CC. Урок по созданию креативного коллажа (2013)

с нашего сайта, Вам необходимо Войти на сайт под своим логином! Если у Вас ещё нет логина, тогда Вам нужно сначала Зарегистрироваться!

Как скачивать? · Что такое торрент? · Рейтинг и ограничения

Показать сообщения:    
Ответить на тему

Валентин Братский - Photoshop CC. Урок по созданию креативного коллажа (2013) скачать торрент (torrent), видеоуроки, тренинги, обучающее видео и видеокурсы

Текущее время: Сегодня 00:25

Часовой пояс: GMT + 4



Вы не можете начинать темы
Вы не можете отвечать на сообщения
Вы не можете редактировать свои сообщения
Вы не можете удалять свои сообщения
Вы не можете голосовать в опросах
Вы не можете прикреплять файлы к сообщениям
Вы не можете скачивать файлы