Установка Windows с USB флешки (2013)

Ответить на тему
 
Автор Сообщение

Yulya ®

-Установка Windows с USB флешки (2013)- Название: Установка Windows с USB флешки
Год выпуска: 2013
Жанр: Обучающий
Продолжительность: 00:07:40
Качество видео: PCRec
Видеокодек: mpeg2video,
Битрейт видео: ~4759 Кбит/сек
Размер кадра: 1920x1080
Аудиокодек: MP2 2.0
Битрейт аудио: 192 Кбит/сек
Описание:
Это видео не большая, но понятная инструкция, как сделать загрузочную флешку с Windows и начать с неё установку.

MI:

Общее
Полное имя : D:\upload\S_Fleshki.MPG
Формат : MPEG-PS
Размер файла : 278 Мбайт
Продолжительность : 7 м. 40 с.
Режим общего битрейта : Переменный
Общий поток : 5052 Кбит/сек
Видео
Идентификатор : 224 (0xE0)
Формат : MPEG Video
Версия формата : Version 2
Профиль формата : Main@Main
Параметр BVOP формата : Да
Параметр матрицы формата : По умолчанию
Параметр GOP формата : M=3, N=15
Продолжительность : 7 м. 40 с.
Вид битрейта : Переменный
Битрейт : 4759 Кбит/сек
Максимальный битрейт : 2519 Мбит/сек
Ширина : 1920 пикселей
Высота : 1080 пикселей
Соотношение сторон : 16:9
Частота кадров : 29,970 кадров/сек
Цветовое пространство : YUV
Субдискретизация насыщенности : 4:2:0
Битовая глубина : 8 бит
Тип развёртки : Прогрессивная
Метод сжатия : С потерями
Бит/(Пиксели*Кадры) : 0.077
TimeCode_FirstFrame : 00:00:00:00
TimeCode_Source : Group of pictures header
Размер потока : 261 Мбайт (94%)
Аудио
Идентификатор : 192 (0xC0)
Формат : MPEG Audio
Версия формата : Version 1
Профиль формата : Layer 2
Продолжительность : 7 м. 40 с.
Вид битрейта : Постоянный
Битрейт : 192 Кбит/сек
Каналы : 2 канала
Частота : 48,0 КГц
Метод сжатия : С потерями
Задержка видео : 11 мс.
Размер потока : 10,5 Мбайт (4%)
Скачать .torrent

Для того, чтобы скачать торрент-файл

Установка Windows с USB флешки (2013)

с нашего сайта, Вам необходимо Войти на сайт под своим логином! Если у Вас ещё нет логина, тогда Вам нужно сначала Зарегистрироваться!

Как скачивать? · Что такое торрент? · Рейтинг и ограничения

Показать сообщения:    
Ответить на тему

Установка Windows с USB флешки (2013) скачать торрент (torrent), видеоуроки, тренинги, обучающее видео и видеокурсы

Текущее время: Сегодня 06:38

Часовой пояс: GMT + 4



Вы не можете начинать темы
Вы не можете отвечать на сообщения
Вы не можете редактировать свои сообщения
Вы не можете удалять свои сообщения
Вы не можете голосовать в опросах
Вы не можете прикреплять файлы к сообщениям
Вы не можете скачивать файлы