Дмитрий Негодов - Правильная очистка системного диска (2013)

Ответить на тему
 
Автор Сообщение

Yulya ®

-Дмитрий Негодов - Правильная очистка системного диска (2013)- Автор (режиссер): Дмитрий Негодов
Название: Правильная очистка системного диска
Год выпуска: 2013
Жанр: Обучающий
Продолжительность: 00:27:35
Качество видео: PCRec
Видеокодек: AVC
Битрейт видео: ~490 Кбит/сек
Размер кадра: 1280x720@1280х960
Аудиокодек: AAC
Битрейт аудио: 192 Кбит/сек
Описание:
В этой серии уроков Вы узнаете, как правильно очистить системный диск, если на нем осталось мало места. Воспользуйтесь простыми советами и удалите лишний мусор с диска...

MI:

Видео
Идентификатор : 1
Формат : AVC
Формат/Информация : Advanced Video Codec
Профиль формата : [url=mailto:High@L3.1]High@L3.1[/url]
Параметр CABAC формата : Да
Параметр ReFrames формата : 1 кадр
Параметр GOP формата : M=1, N=50
Идентификатор кодека : avc1
Идентификатор кодека/Информация : Advanced Video Coding
Продолжительность : 13 м.
Битрейт : 490 Кбит/сек
Максимальный битрейт : 6631 Кбит/сек
Ширина : 1280 пикселей
Высота : 720 пикселей
Соотношение сторон : 16:9
Режим частоты кадров : Постоянный
Частота кадров : 10,000 кадров/сек
Цветовое пространство : YUV
Субдискретизация насыщенности : 4:2:0
Битовая глубина : 8 бит
Тип развёртки : Прогрессивная
Бит/(Пиксели*Кадры) : 0.053
Размер потока : 45,6 Мбайт (72%)
Дата пометки : UTC 2013-06-20 12:24:55
Аудио
Идентификатор : 2
Формат : AAC
Формат/Информация : Advanced Audio Codec
Профиль формата : LC
Идентификатор кодека : 40
Продолжительность : 13 м.
Вид битрейта : Переменный
Битрейт : 192 Кбит/сек
Максимальный битрейт : 201 Кбит/сек
Каналы : 2 канала
Расположение каналов : Front: L R
Частота : 44,1 КГц
Метод сжатия : С потерями
Размер потока : 17,9 Мбайт (28%)
Заголовок : IsoMedia File Produced by Google, 5-11-2011
Дата кодирования : UTC 2013-06-20 12:24:49
Дата пометки : UTC 2013-06-20 12:24:55
Скачать .torrent

Для того, чтобы скачать торрент-файл

Дмитрий Негодов - Правильная очистка системного диска (2013)

с нашего сайта, Вам необходимо Войти на сайт под своим логином! Если у Вас ещё нет логина, тогда Вам нужно сначала Зарегистрироваться!

Как скачивать? · Что такое торрент? · Рейтинг и ограничения

Показать сообщения:    
Ответить на тему

Дмитрий Негодов - Правильная очистка системного диска (2013) скачать торрент (torrent), видеоуроки, тренинги, обучающее видео и видеокурсы

Текущее время: Сегодня 02:59

Часовой пояс: GMT + 4



Вы не можете начинать темы
Вы не можете отвечать на сообщения
Вы не можете редактировать свои сообщения
Вы не можете удалять свои сообщения
Вы не можете голосовать в опросах
Вы не можете прикреплять файлы к сообщениям
Вы не можете скачивать файлы