Быстрая загрузка системы (2013)

Ответить на тему
 
Автор Сообщение

Yulya ®

-Быстрая загрузка системы (2013)- Название: Быстрая загрузка системы
Год выпуска: 2013
Жанр: Обучающее видео
Продолжительность: 00:06:20
Качество видео: PCRec
Видеокодек: MPEG 2 Video
Битрейт видео: ~6067 Кбит/сек
Размер кадра: 1920x1080
Аудиокодек: MP2,2ch
Битрейт аудио: 192 Кбит/сек
Описание:
Как отключить часть тестов оборудования, которые проводит BIOS для ускорения старта компьютера?

MI:

Видео
Идентификатор : 224 (0xE0)
Формат : MPEG Video
Версия формата : Version 2
Профиль формата : Main@Main
Параметр BVOP формата : Да
Параметр матрицы формата : По умолчанию
Параметр GOP формата : M=3, N=15
Продолжительность : 6 м. 20 с.
Вид битрейта : Переменный
Битрейт : 6067 Кбит/сек
Максимальный битрейт : 2519 Мбит/сек
Ширина : 1920 пикселей
Высота : 1080 пикселей
Соотношение сторон : 16:9
Частота кадров : 29,970 кадров/сек
Цветовое пространство : YUV
Субдискретизация насыщенности : 4:2:0
Битовая глубина : 8 бит
Тип развёртки : Прогрессивная
Метод сжатия : С потерями
Бит/(Пиксели*Кадры) : 0.098
TimeCode_FirstFrame : 00:00:00:00
TimeCode_Source : Group of pictures header
Размер потока : 275 Мбайт (95%)
Аудио
Идентификатор : 192 (0xC0)
Формат : MPEG Audio
Версия формата : Version 1
Профиль формата : Layer 2
Продолжительность : 6 м. 20 с.
Вид битрейта : Постоянный
Битрейт : 192 Кбит/сек
Каналы : 2 канала
Частота : 48,0 КГц
Метод сжатия : С потерями
Размер потока : 8,72 Мбайт (3%)
Скачать .torrent

Для того, чтобы скачать торрент-файл

Быстрая загрузка системы (2013)

с нашего сайта, Вам необходимо Войти на сайт под своим логином! Если у Вас ещё нет логина, тогда Вам нужно сначала Зарегистрироваться!

Как скачивать? · Что такое торрент? · Рейтинг и ограничения

Показать сообщения:    
Ответить на тему

Быстрая загрузка системы (2013) скачать торрент (torrent), видеоуроки, тренинги, обучающее видео и видеокурсы

Текущее время: Сегодня 06:57

Часовой пояс: GMT + 4



Вы не можете начинать темы
Вы не можете отвечать на сообщения
Вы не можете редактировать свои сообщения
Вы не можете удалять свои сообщения
Вы не можете голосовать в опросах
Вы не можете прикреплять файлы к сообщениям
Вы не можете скачивать файлы