Windows 8. Ускоряем работу без дополнительных программ (2013)

Ответить на тему
 
Автор Сообщение

Yulya ®

-Windows 8. Ускоряем работу без дополнительных программ (2013)- Название: Windows 8. Ускоряем работу без дополнительных программ
Год выпуска: 2013
Жанр: Обучающее видео
Продолжительность: 00:11:20
Качество видео: PCRec
Видеокодек: AVC
Битрейт видео: ~6394 Кбит/сек
Размер кадра: 1920x1080
Аудиокодек: MP3,2ch
Битрейт аудио: 128 Кбит/сек
Описание:
После просмотра этого видео вы узнаете о том, как ускорить работу Windows 8 без установки дополнительных программ.
План урока:
1. - выставить виртуальную память в 2 раза больше чем оперативная
2. - не индексировать содержимое диска.
3. - смена кол-ва отображаемых цветов.
4. - убрать большинство эффектов системы и анимацию.
5. - отключение восстановления системы.
6. - установить число процессоров на 2 или 4 или 8 (в зависимости сколько их у вас)
7. - ПРОГРАММЫ и КОМПОНЕНТЫ. Включение и отключение компонентов windows.
8. - убрать из автозагрузки ненужные программы.
9. - Отключить ненужные службы
10. - добавлять в в меню слева ссылки на часто посещаемые места
11. - дефрагментация диска.
12. - добавить ссылки на рабочий стол на места в которые трудно попасть одним или двумя щелчками мыши

MI:

Видео
Идентификатор : 1
Формат : AVC
Формат/Информация : Advanced Video Codec
Профиль формата : [url=mailto:Baseline@L4.0]Baseline@L4.0[/url]
Параметр CABAC формата : Нет
Параметр ReFrames формата : 1 кадр
Параметр GOP формата : M=1, N=12
Идентификатор кодека : V_MPEG4/ISO/AVC
Продолжительность : 11 м.
Битрейт : 6394 Кбит/сек
Ширина : 1920 пикселей
Высота : 1080 пикселей
Соотношение сторон : 16:9
Режим частоты кадров : Постоянный
Частота кадров : 29,970 кадров/сек
Цветовое пространство : YUV
Субдискретизация насыщенности : 4:2:0
Битовая глубина : 8 бит
Тип развёртки : Прогрессивная
Бит/(Пиксели*Кадры) : 0.103
Размер потока : 518 Мбайт (96%)
Default : Да
Forced : Нет
Аудио
Идентификатор : 2
Формат : MPEG Audio
Версия формата : Version 1
Профиль формата : Layer 3
Режим : Joint stereo
Идентификатор кодека : A_MPEG/L3
Идентификатор кодека/Подсказка : MP3
Продолжительность : 11 м.
Вид битрейта : Постоянный
Битрейт : 128 Кбит/сек
Каналы : 2 канала
Частота : 44,1 КГц
Метод сжатия : С потерями
Размер потока : 10,4 Мбайт (2%)
Библиотека кодирования : LAME3.97
Default : Да
Forced : Нет
Скачать .torrent

Для того, чтобы скачать торрент-файл

Windows 8. Ускоряем работу без дополнительных программ (2013)

с нашего сайта, Вам необходимо Войти на сайт под своим логином! Если у Вас ещё нет логина, тогда Вам нужно сначала Зарегистрироваться!

Как скачивать? · Что такое торрент? · Рейтинг и ограничения

Показать сообщения:    
Ответить на тему

Windows 8. Ускоряем работу без дополнительных программ (2013) скачать торрент (torrent), видеоуроки, тренинги, обучающее видео и видеокурсы

Текущее время: Сегодня 23:24

Часовой пояс: GMT + 4



Вы не можете начинать темы
Вы не можете отвечать на сообщения
Вы не можете редактировать свои сообщения
Вы не можете удалять свои сообщения
Вы не можете голосовать в опросах
Вы не можете прикреплять файлы к сообщениям
Вы не можете скачивать файлы