Как сделать из компьютера веб-сервер (2013)

Ответить на тему
 
Автор Сообщение

Yulya ®

-Как сделать из компьютера веб-сервер (2013)- Название: Как сделать из компьютера веб-сервер
Год выпуска: 2013
Жанр: Обучающий
Продолжительность: 00:24:14
Качество видео: PCRec
Видеокодек: MPEG-4 (H.263)
Битрейт видео: ~897 Кбит/сек
Размер кадра: 1280х720@1280х748
Аудиокодек: AAC,2ch
Битрейт аудио: 128 Кбит/сек
Описание:
В этом уроке вы узнаете, как сделать из своего компьютера или ноутбука веб-сервер с сайтом и базой данных и открыть ему доступ в интернет.

MI::

Видео
Идентификатор : 1
Формат : MPEG-4 Visual
Профиль формата : Simple@L1
Параметр BVOP формата : Нет
Параметр QPel формата : Нет
Параметр GMC формата : Без точки перехода
Параметр матрицы формата : Default (H.263)
Идентификатор кодека : 20
Продолжительность : 24 м.
Вид битрейта : Переменный
Битрейт : 897 Кбит/сек
Максимальный битрейт : 4000 Кбит/сек
Ширина : 1280 пикселей
Высота : 720 пикселей
Соотношение сторон : 1,710
Соотношение сторон в оригинале : 1,711
Режим частоты кадров : Постоянный
Частота кадров : 10,000 кадров/сек
Цветовое пространство : YUV
Субдискретизация насыщенности : 4:2:0
Битовая глубина : 8 бит
Тип развёртки : Прогрессивная
Метод сжатия : С потерями
Бит/(Пиксели*Кадры) : 0.097
Размер потока : 156 Мбайт (87%)
Библиотека кодирования : Lavc54.63.100
Аудио
Идентификатор : 2
Формат : AAC
Формат/Информация : Advanced Audio Codec
Профиль формата : LC
Идентификатор кодека : 40
Продолжительность : 24 м.
Duration_LastFrame : -7 мс.
Вид битрейта : Постоянный
Битрейт : 128 Кбит/сек
Каналы : 2 канала
Расположение каналов : Front: L R
Частота : 48,0 КГц
Метод сжатия : С потерями
Размер потока : 22,2 Мбайт (12%)
Скачать .torrent

Для того, чтобы скачать торрент-файл

Как сделать из компьютера веб-сервер (2013)

с нашего сайта, Вам необходимо Войти на сайт под своим логином! Если у Вас ещё нет логина, тогда Вам нужно сначала Зарегистрироваться!

Как скачивать? · Что такое торрент? · Рейтинг и ограничения

Показать сообщения:    
Ответить на тему

Как сделать из компьютера веб-сервер (2013) скачать торрент (torrent), видеоуроки, тренинги, обучающее видео и видеокурсы

Текущее время: Сегодня 11:48

Часовой пояс: GMT + 4



Вы не можете начинать темы
Вы не можете отвечать на сообщения
Вы не можете редактировать свои сообщения
Вы не можете удалять свои сообщения
Вы не можете голосовать в опросах
Вы не можете прикреплять файлы к сообщениям
Вы не можете скачивать файлы