И.О.Борисов | Специалист - PHP. Основы создания сайтов. Уровень 1 (2013)

Ответить на тему
 
Автор Сообщение

Yulya ®

-И.О.Борисов | Специалист - PHP. Основы создания сайтов. Уровень 1 (2013)- Автор (режиссер): И.О.Борисов
Название: Специалист. PHP. Уровень 1. Основы создания сайтов
Год выпуска: 2013
Жанр: Обучающие видеокурсы
Качество видео: PCRec
Продолжительность: 15:09:28
Видеокодек: AVC
Битрейт видео: ~112 Кбит/сек
Размер кадра: 1280x720
Аудиокодек: AAC
Битрейт аудио: 45,6 Кбит/сек
Описание:
PHP, как средство создания Веб-сайтов необычайно популярно в России и в мире. Около 75% сайтов в мире написаны на PHP. С помощью PHP веб-мастера разрабатывают сложные сайты, имеющие развитые функции, активно взаимодействующие с пользователем.На этом курсе слушатели получают начальные навыки разработки сайтов на PHP, что позволяет быстро начать использование PHP. Курс прежде всего предназначен для слушателей, ранее не имевшими дело с PHP-программированием, и желающим начать использование PHP.
Данный курс является первым курсом в цепочке подготовки Веб-мастера к получению сертификации ZCE (Zend Certified Engineer).
На курсе рассматриваются наиболее свежие версии PHP.Курс предназначен для слушателей, начинающих изучение PHP, и не имеющих опыта использования PHP

По окончанию вы будете уметь:

- Использовать «сборку» Open Server c предустановленными веб-сервером Apache и PHP
- Уметь использовать основные настройки сервера Apache
- Настраивать PHP
- Создавать простые сценарии PHP
- Работать с формами: принимать данные HTML форм и обрабатывать их

Программа курса:

Модуль 1. Установка/настройка веб-сервера и PHP
Вопросы, на которые надо ответить
Как это работает?
Установка веб-сервера
Настройка веб-сервера
Установка PHP
Настройка PHP
Первый скрипт на PHP
Модуль 2. Основы PHP
Синтаксис
Операторы
Переменные
Константы
Типы
Управляющие конструкции
Лабораторные работы
Модуль 3. Циклы
Операторы инкремента/декремента
Цикл for
Цикл while
Цикл do-while
Итерирование массива
Цикл foreach
Лабораторные работа
Модуль 4. Пользовательские функции
Описание функции
Вызов функции
Аргументы функции
Аргументы функции по умолчанию
Область видимости переменных
Статические переменные
Возврат значений
Рекурсивная функция
Лабораторные работы
Модуль 5. Что внутри PHP?
Документация PHP
Обзор встроенных функции
Математические функции
Функции для работы с переменными
Функции обработки строк
Функции для работы с массивами
Функции даты и времени
Встроенные константы
Суперглобальные переменные
Функции эмуляции SSI
Лабораторная работа
Модуль 6. Изучаем HTTP: формы
HTTP/1.1
Заголовки запроса и ответа
Статус сервера
Доступ к заголовкам запроса – переменные окружения сервера
Работа с веб-формами
Методы GET и POST
Различие методов
Проверка передаваемых значений
Лабораторная работа
Финальная практическая работа

MI:

Видео
Идентификатор : 1
Формат : AVC
Формат/Информация : Advanced Video Codec
Профиль формата : [url=mailto:Baseline@L3.1]Baseline@L3.1[/url]
Параметр CABAC формата : Нет
Параметр ReFrames формата : 3 кадра
Идентификатор кодека : avc1
Идентификатор кодека/Информация : Advanced Video Coding
Вид битрейта : Переменный
Битрейт : 112 Кбит/сек
Ширина : 1280 пикселей
Высота : 720 пикселей
Соотношение сторон : 16:9
Режим частоты кадров : Переменный
Частота кадров : 30,000 кадров/сек
Минимальная частота кадров : 30,000 кадров/сек
Максимальная частота кадров : 30,030 кадров/сек
Стандарт вещания : NTSC
Цветовое пространство : YUV
Субдискретизация насыщенности : 4:2:0
Битовая глубина : 8 бит
Тип развёртки : Прогрессивная
Бит/(Пиксели*Кадры) : 0.004
Размер потока : 127 Мбайт (70%)
Размер потока оригинала : 127 Мбайт (70%)
Язык : English
Дата кодирования : UTC 2013-06-09 16:02:57
Дата пометки : UTC 2013-06-09 16:02:57
mdhd_Duration : 9565200
Аудио
Идентификатор : 2
Формат : AAC
Формат/Информация : Advanced Audio Codec
Профиль формата : LC
Идентификатор кодека : 40
Вид битрейта : Переменный
Битрейт : 45,6 Кбит/сек
Максимальный битрейт : 148 Кбит/сек
Каналы : 2 канала
Расположение каналов : Front: L R
Частота : 44,1 КГц
Метод сжатия : С потерями
Размер потока : 52,1 Мбайт (29%)
Размер потока оригинала : 52,1 Мбайт (29%)
Язык : English
Дата кодирования : UTC 2013-06-09 16:02:57
Дата пометки : UTC 2013-06-09 16:02:57
mdhd_Duration : 9565228
Скачать .torrent

Для того, чтобы скачать торрент-файл

И.О.Борисов | Специалист - PHP. Основы создания сайтов. Уровень 1 (2013)

с нашего сайта, Вам необходимо Войти на сайт под своим логином! Если у Вас ещё нет логина, тогда Вам нужно сначала Зарегистрироваться!

Как скачивать? · Что такое торрент? · Рейтинг и ограничения

Показать сообщения:    
Ответить на тему

И.О.Борисов | Специалист - PHP. Основы создания сайтов. Уровень 1 (2013) скачать торрент (torrent), видеоуроки, тренинги, обучающее видео и видеокурсы

Текущее время: Сегодня 08:00

Часовой пояс: GMT + 4



Вы не можете начинать темы
Вы не можете отвечать на сообщения
Вы не можете редактировать свои сообщения
Вы не можете удалять свои сообщения
Вы не можете голосовать в опросах
Вы не можете прикреплять файлы к сообщениям
Вы не можете скачивать файлы