Олег Бочаров - Как объединить диски в windows (2013)

Ответить на тему
 
Автор Сообщение

Yulya ®

-Олег Бочаров - Как объединить диски в windows (2013)- Автор (режиссер): Олег Бочаров
Название: Как объединить диски в windows?
Год выпуска: 2013
Жанр: Видеоурок
Качество видео: WEB-DLRip
Продолжительность: 00:10:27
Видеокодек: mpeg2video
Битрейт видео: ~4501 Кбит/сек
Размер кадра: 1920x1080
Аудиокодек: MP2
Битрейт аудио: 192 Кбит/сек, 2 канала
Описание:
Ежели на Вашем компьютере есть несколько жестких дисков, которые вы желаете соединить в один диск, то смотрите видеоролик с подробным рассказом о том, как это делается на windows xp, vista, 7 и 8. В видео Вы познакомитесь с RAID технологией и научитесь объединять 2 и более дисков и создавать чередующийся том.

MediaInfo:

Общее
Полное имя : diskki.mpg
Формат : MPEG-PS
Размер файла : 358 Мбайт
Продолжительность : 10 м.
Режим общего битрейта : Переменный
Общий поток : 4789 Кбит/сек
Видео
Идентификатор : 224 (0xE0)
Формат : MPEG Video
Версия формата : Version 2
Профиль формата : Main@Main
Параметр BVOP формата : Да
Параметр матрицы формата : По умолчанию
Параметр GOP формата : M=3, N=15
Продолжительность : 10 м.
Вид битрейта : Переменный
Битрейт : 4501 Кбит/сек
Максимальный битрейт : 2519 Мбит/сек
Ширина : 1920 пикселей
Высота : 1080 пикселей
Соотношение сторон : 16:9
Частота кадров : 29,970 кадров/сек
Цветовое пространство : YUV
Субдискретизация насыщенности : 4:2:0
Битовая глубина : 8 бит
Тип развёртки : Прогрессивная
Метод сжатия : С потерями
Бит/(Пиксели*Кадры) : 0.072
TimeCode_FirstFrame : 00:00:00:00
TimeCode_Source : Group of pictures header
Размер потока : 336 Мбайт (94%)
Аудио
Идентификатор : 192 (0xC0)
Формат : MPEG Audio
Версия формата : Version 1
Профиль формата : Layer 2
Продолжительность : 10 м.
Вид битрейта : Постоянный
Битрейт : 192 Кбит/сек
Каналы : 2 канала
Частота : 48,0 КГц
Метод сжатия : С потерями
Задержка видео : 17 мс.
Размер потока : 14,4 Мбайт (4%)
Скриншоты:
Скачать .torrent

Для того, чтобы скачать торрент-файл

Олег Бочаров - Как объединить диски в windows (2013)

с нашего сайта, Вам необходимо Войти на сайт под своим логином! Если у Вас ещё нет логина, тогда Вам нужно сначала Зарегистрироваться!

Как скачивать? · Что такое торрент? · Рейтинг и ограничения

Показать сообщения:    
Ответить на тему

Олег Бочаров - Как объединить диски в windows (2013) скачать торрент (torrent), видеоуроки, тренинги, обучающее видео и видеокурсы

Текущее время: Сегодня 02:30

Часовой пояс: GMT + 4



Вы не можете начинать темы
Вы не можете отвечать на сообщения
Вы не можете редактировать свои сообщения
Вы не можете удалять свои сообщения
Вы не можете голосовать в опросах
Вы не можете прикреплять файлы к сообщениям
Вы не можете скачивать файлы