Как открыть порт на роутере (2013)

Ответить на тему
 
Автор Сообщение

Yulya ®

-Как открыть порт на роутере (2013)-Название: Как открыть порт на роутере?
Год выпуска: 2013
Жанр: Видеоурок
Качество видео: PCRec
Продолжительность: 00:16:59
Видеокодек: MPEG-4 (H.263)
Битрейт видео: ~2152 Кбит/сек
Размер кадра: 1280х720
Аудиокодек: AAC
Битрейт аудио: 128 Кбит/сек
Описание:
Простая и понятная информация в виде обучающего курса о том как открыть порты на роутере модели TP-LINK.

MI:

Общее
Формат : MPEG-4
Профиль формата : Base Media
Идентификатор кодека : isom
Размер файла : 278 Мбайт
Продолжительность : 16 м.
Общий поток : 2284 Кбит/сек
Название фильма : KakOtkritPortNaRoutere
Трек/Положение : 1
Дата записи : 2013
Программа кодирования : Lavf54.29.105
Обложка : Yes
Видео
Идентификатор : 1
Формат : MPEG-4 Visual
Профиль формата : Simple@L1
Параметр BVOP формата : Нет
Параметр QPel формата : Нет
Параметр GMC формата : Без точки перехода
Параметр матрицы формата : Default (H.263)
Идентификатор кодека : 20
Продолжительность : 16 м.
Вид битрейта : Переменный
Битрейт : 2152 Кбит/сек
Максимальный битрейт : 4000 Кбит/сек
Ширина : 1280 пикселей
Высота : 720 пикселей
Соотношение сторон : 16:9
Режим частоты кадров : Постоянный
Частота кадров : 16,000 кадров/сек
Цветовое пространство : YUV
Субдискретизация насыщенности : 4:2:0
Битовая глубина : 8 бит
Тип развёртки : Прогрессивная
Метод сжатия : С потерями
Бит/(Пиксели*Кадры) : 0.146
Размер потока : 261 Мбайт (94%)
Библиотека кодирования : Lavc54.63.100
Аудио
Идентификатор : 2
Формат : AAC
Формат/Информация : Advanced Audio Codec
Профиль формата : LC
Идентификатор кодека : 40
Продолжительность : 16 м.
Duration_LastFrame : -10 мс.
Вид битрейта : Постоянный
Битрейт : 128 Кбит/сек
Каналы : 2 канала
Расположение каналов : Front: L R
Частота : 48,0 КГц
Метод сжатия : С потерями
Размер потока : 15,6 Мбайт (6%)
Скачать .torrent

Для того, чтобы скачать торрент-файл

Как открыть порт на роутере (2013)

с нашего сайта, Вам необходимо Войти на сайт под своим логином! Если у Вас ещё нет логина, тогда Вам нужно сначала Зарегистрироваться!

Как скачивать? · Что такое торрент? · Рейтинг и ограничения

Nershack1

Спасибо, нужная информация
Показать сообщения:    
Ответить на тему

Как открыть порт на роутере (2013) скачать торрент (torrent), видеоуроки, тренинги, обучающее видео и видеокурсы

Текущее время: Сегодня 15:42

Часовой пояс: GMT + 4



Вы не можете начинать темы
Вы не можете отвечать на сообщения
Вы не можете редактировать свои сообщения
Вы не можете удалять свои сообщения
Вы не можете голосовать в опросах
Вы не можете прикреплять файлы к сообщениям
Вы не можете скачивать файлы