Poser - Видеоуроки Maxon Cinema 4D (2009)

Ответить на тему
 
Автор Сообщение

Yulya ®

-Poser | Видеоуроки Maxon Cinema 4D [2009] PCRec- Автор: Poser
Название: Видеоуроки Maxon Cinema 4D R11
Год выпуска: 2009
Жанр: Обучающие видеоуроки
Качество видео: PCRec
Продолжительность: 04:06:31
Видеокодек: tscc
Битрейт видео: ~862 Kbpss, 20.000 fps
Размер кадра: 1024 x 768
Аудиокодек: PCM
Битрейт аудио: 352.8 Kbps, 1 ch, 22.05 KHz
Описание:
CINEMA 4D или сокращённо C4D фирмы MAXON является пакетом для создания трёхмерной графики и анимации.
CINEMA 4D является универсальной комплексной программой для создания и редактирования трёхмерных эффектов и объектов. Позволяет рендерить объекты по методу Гуро. Поддержка анимации и высококачественного рендеринга. Отличается более простым интерфейсом, чем у аналогов, и встроенной поддержкой русского языка, что делает её популярной среди русскоязычной аудитории.
Видеокурс рассчитан на изучение программы CINEMA 4D на русском языке.

Список уроков:

1 урок.
Обзор программы от интерфейса к готовому изображению
2 урок.
Полигональное моделирование.
Создание UV OBJ(Luxology modo 302)
Создание displasment map(Pixologic Zbrush 3.1
3 урок.
Обзор подключаемых Render
Advanced Render 3
finalRender Stage 2
Maxwell Render
flyrender
Indigo renderer
RenderMan(CineMan)
4 урок.
NURBS инструменты
Modeling инструменты
Деформаторы объектов(Deformers)
Работа с MoGraph и визуализация в Engeniring Edition

MediaInfo:

General
Complete name Видеоуроки MAXON CINEMA 4D R11\1.Обзор программы от интерфейса к готовому изображению.avi
Format : AVI
Format/Info : Audio Video Interleave
File size : 329 MiB
Duration : 37mn 41s
Overall bit rate : 1 220 Kbps
Video
ID : 0
Format : TechSmith
Codec ID : tscc
Codec ID/Info : TechSmith Screen Capture
Duration : 37mn 41s
Bit rate : 862 Kbps
Width : 1 024 pixels
Height : 768 pixels
Display aspect ratio : 4:3
Frame rate : 20.000 fps
Bit depth : 8 bits
Bits/(Pixel*Frame) : 0.055
Stream size : 232 MiB (71%)
Audio
ID : 1
Format : PCM
Format settings, Endianness : Little
Format settings, Sign : Signed
Codec ID : 1
Duration : 37mn 41s
Bit rate mode : Constant
Bit rate : 352.8 Kbps
Channel(s) : 1 channel
Sampling rate : 22.05 KHz
Bit depth : 16 bits
Stream size : 95.1 MiB (29%)
Interleave, duration : 1000 ms (19.99 video frames)
Interleave, preload duration : 749 ms
Скриншоты:
Скачать .torrent

Для того, чтобы скачать торрент-файл

Poser - Видеоуроки Maxon Cinema 4D (2009)

с нашего сайта, Вам необходимо Войти на сайт под своим логином! Если у Вас ещё нет логина, тогда Вам нужно сначала Зарегистрироваться!

Как скачивать? · Что такое торрент? · Рейтинг и ограничения

Показать сообщения:    
Ответить на тему

Poser - Видеоуроки Maxon Cinema 4D (2009) скачать торрент (torrent), видеоуроки, тренинги, обучающее видео и видеокурсы

Текущее время: Сегодня 20:19

Часовой пояс: GMT + 4



Вы не можете начинать темы
Вы не можете отвечать на сообщения
Вы не можете редактировать свои сообщения
Вы не можете удалять свои сообщения
Вы не можете голосовать в опросах
Вы не можете прикреплять файлы к сообщениям
Вы не можете скачивать файлы