Последнее из V.I.P.-раздела

24-Окт
24-Окт
24-Окт
24-Окт
24-Окт
24-Окт
24-Окт
24-Окт
24-Окт
24-Окт
24-Окт
24-Окт
24-Окт
24-Окт
23-Окт
23-Окт
23-Окт
23-Окт
23-Окт
23-Окт

Новости о коронавирусе

А. Днепров - Видеосамоучитель ArchiCAD 12 (2009)

Ответить на тему
 
Автор Сообщение

Yulya ®

-А. Днепров - Видеосамоучитель ArchiCAD 12 (2009)- Автор: А. Днепров
Название: Видеосамоучитель ArchiCad 12
Год выпуска: 2009
Жанр: Обучающее видео
Качество видео: PCRec
Продолжительность: 01:06:45
Видеокодек: XviD
Битрейт видео: ~410 Kbps, 10.000 fps
Размер кадра: 1024 x 768
Аудиокодек: MP3
Битрейт аудио: 56.0 Kbps, 2 ch, 24.0 KHz
Описание:
Видеокурс состоит из 21 видеоурока, показывающих создание разработку проекта здания двухэтажного кафе.

Список уроков:

• Запуск проекта и настройка параметров этажей. Описывается создание и сохранение проекта, настройка этажей.
• Установка конструкторской сетки. Рассматривается настройка и вставка в проект конструкторской сетки.
• Проектирование фундамента. Показано проектирование фундамента кафе.
• Проектирование перекрытия фундамента. Рассмотрено, как созданный ранее фундамент закрыть перекрытием.
• Проектирование стен первого этажа. Показано, как проектировать стены первого этажа.
• Проектирование перекрытия первого этажа. Продемонстрировано, как проектировать перекрытие.
• Проектирование проема под лестницу. Рассмотрено, как создать проем для лестницы с 1 на 2 этаж.
• Проектирование второго этажа. Показано, как спроектировать второй этаж путем копирования и вставки первого этажа.
• Проектирование окон первого этажа. Рассмотрено, как создать витражи на переднем и боковых фасадах первого этажа здания кафе.
• Завершение окон первого этажа. Продемонстрировано, как спроектировать три окна на заднем фасаде первого этажа здания кафе.
• Построение арочного витража. Показано, как выполнить арочный витраж на втором этаже.
• Завершение окон второго этажа. Рассмотрено, как спроектировать шесть окон на втором этаже.
• Построение парадных дверей. Показано, как создать две парадные двери для входа в кафе.
• Построение служебной двери. Рассмотрено, как построить служебную дверь в кафе.
• Построение внутренних дверей. Показано построение дверей внутри помещений здания кафе.
• Построение крыльца. Продемонстрировано, как выполнить крыльцо для входа в кафе.
• Построение лестничных площадок. Рассмотрено, как создать лестничные площадки на первом и втором этажах.
• Создание новой лестницы и ее настройка. Показано, как создать новую лестницу и настроить ее параметры.
• Построение лестниц. Рассмотрено построение лестниц первого и второго этажей. Кроме того, показано, как просмотреть работу в трехмерном виде.
• Построение крыши. Продемонстрировано, как настроить инструмент Roof (Крыша) и как создать крышу.
• Покрытие крыши черепицей. Показано, как создать черепицу и присвоить этот материал крыше.

MediaInfo:

General
Complete name : Arhicad видеоурок\Урок 01. Запуск проекта и настройка параметров этажей.avi
Format : AVI
Format/Info : Audio Video Interleave
File size : 10.3 MiB
Duration : 2mn 49s
Overall bit rate : 508 Kbps
Video
ID : 0
Format : MPEG-4 Visual
Format profile : Advanced Simple@L5
Format settings, BVOP : 2
Format settings, QPel : No
Format settings, GMC : No warppoints
Format settings, Matrix : Default (H.263)
Muxing mode : Packed bitstream
Codec ID : XVID
Codec ID/Hint : XviD
Duration : 2mn 49s
Bit rate : 410 Kbps
Width : 1 024 pixels
Height : 768 pixels
Display aspect ratio : 4:3
Frame rate : 10.000 fps
Color space : YUV
Chroma subsampling : 4:2:0
Bit depth : 8 bits
Scan type : Progressive
Compression mode : Lossy
Bits/(Pixel*Frame) : 0.052
Stream size : 8.29 MiB (81%)
Writing library : XviD 1.1.2 (UTC 2006-11-01)
Audio
ID : 1
Format : MPEG Audio
Format version : Version 2
Format profile : Layer 3
Mode : Joint stereo
Mode extension : Intensity Stereo
Codec ID : 55
Codec ID/Hint : MP3
Duration : 2mn 49s
Bit rate mode : Constant
Bit rate : 56.0 Kbps
Channel(s) : 2 channels
Sampling rate : 24.0 KHz
Compression mode : Lossy
Stream size : 1.13 MiB (11%)
Alignment : Split accross interleaves
Interleave, duration : 250 ms (2.50 video frames)
Interleave, preload duration : 224 ms
Скриншоты:
Скачать .torrent

Для того, чтобы скачать торрент-файл

А. Днепров - Видеосамоучитель ArchiCAD 12 (2009)

с нашего сайта, Вам необходимо Войти на сайт под своим логином! Если у Вас ещё нет логина, тогда Вам нужно сначала Зарегистрироваться!

Как скачивать? · Что такое торрент? · Рейтинг и ограничения

Показать сообщения:    
Ответить на тему

А. Днепров - Видеосамоучитель ArchiCAD 12 (2009) скачать торрент (torrent), видеоуроки, тренинги, обучающее видео и видеокурсы

Текущее время: Сегодня 06:53

Часовой пояс: GMT + 4



Вы не можете начинать темы
Вы не можете отвечать на сообщения
Вы не можете редактировать свои сообщения
Вы не можете удалять свои сообщения
Вы не можете голосовать в опросах
Вы не можете прикреплять файлы к сообщениям
Вы не можете скачивать файлы