Сергей и Мария Бондаренко - Видеоуроки по 3D max (2007-2008)

Ответить на тему
 
Автор Сообщение

Yulya ®

-Сергей и Мария Бондаренко | Видеоуроки по 3D max [2007-2008] PCRec- Автор: Сергей Бондаренко, Мария Бондаренко
Название: Видеоуроки 3D max
Год выпуска: 2007-2008
Жанр: Обучающие видеоуроки
Качество видео: PCRec
Продолжительность: 06:31:08
Видеокодек: XVID
Битрейт видео: ~1 153 Kbps, 15.000 fps
Размер кадра: 1024x768
Аудиокодек: AC-3
Битрейт аудио: 160 Kbps, 2 Ch, 44.1 KHz
Описание:
Autodesk 3ds Max (ранее 3D Studio MAX) — полнофункциональная профессиональная программная система для создания и редактирования трёхмерной графики и анимации, разработанная компанией Autodesk. Содержит самые современные средства для художников и специалистов в области мультимедиа.
Видеоурок состоит из 11 уроков для начинающих и 27 уроков для продвинутых пользователей 3D max.

Список уроков:

3D max для начинающих:
1.Введение в редактор материалов
2.Первые шаги в 3D max ч1
3.Первые шаги в 3D max ч2
4.Первые шаги в 3D max ч3
5.Первые шаги в 3D max ч4
6.Первые шаги в 3D max ч5
7.Первые шаги в 3D max ч6
8.Первые шаги в reactor. Воздушный змей
9.Первые шаги в reactor. Твёрдые тела
10.Эффект Fire. Создание пожара
11.Эффект Volume Light
3D max для продвинутых:
1.Анимация занавески
2.Анимация капель дождя с использованием Particle Flow
3.Анимация материала для статуи Купидона
4.Анимация разбивающейся сосульки ч1
5.Анимация разбивающейся сосульки ч2
6.Визуализация из командной строки
7.Группы сглаживания
8.Забиваем гол средствами reactor
9.Использование Hdri для получения реалистичных бликов
10.Источник света Vray Sun
11.Метаболы-составной эффект Blobmesh
12.Моделирование крышки
13.Моделирование компьютерной мыши
14.Моделирование навесного замка
15.Основы Radiosity
16.Пошив одежды с помощью Cloth
17.Работа с ProBoolean ч1
18.Работа с ProBoolean ч2
19.Работа ProCutter
20.Работ с объектом Vray Proxi
21.Работа с модулем Hair&Fur ч1
22.Работа с модулем Hair&Fur ч2
23.Создание кристалла льда
24.Создание огня с использованием частиц
25.Твёрдые тела в reactor. Анимация цепи
26.Состояние сцены
27.Создание электронных часов со светящимся циферблатом

MediaInfo:

General
Complete name : D:\Video(Pro)\3Ds max Уроки\3D max Уроки\3D max для начинающих\1.Введение в редактор материалов.avi
Format : AVI
Format/Info : Audio Video Interleave
File size : 114 MiB
Duration : 11mn 32s
Overall bit rate : 1 380 Kbps
Video
ID : 0
Format : MPEG-4 Visual
Format profile : Advanced Simple@L5
Format settings, BVOP : 2
Format settings, QPel : No
Format settings, GMC : No warppoints
Format settings, Matrix : Default (H.263)
Muxing mode : Packed bitstream
Codec ID : XVID
Codec ID/Hint : XviD
Duration : 11mn 32s
Bit rate : 1 153 Kbps
Width : 1 024 pixels
Height : 768 pixels
Display aspect ratio : 4:3
Frame rate : 15.000 fps
Color space : YUV
Chroma subsampling : 4:2:0
Bit depth : 8 bits
Scan type : Progressive
Compression mode : Lossy
Bits/(Pixel*Frame) : 0.098
Stream size : 95.3 MiB (84%)
Writing library : XviD 1.2.0SMP (UTC 2006-01-08)
Audio
ID : 1
Format : AC-3
Format/Info : Audio Coding 3
Mode extension : CM (complete main)
Format settings, Endianness : Big
Codec ID : 2000
Duration : 11mn 32s
Bit rate mode : Constant
Bit rate : 160 Kbps
Channel(s) : 2 channels
Channel positions : Front: L R
Sampling rate : 44.1 KHz
Bit depth : 16 bits
Compression mode : Lossy
Stream size : 13.2 MiB (12%)
Alignment : Aligned on interleaves
Interleave, duration : 67 ms (1.00 video frame)
Скриншоты:

Время раздачи: С 09:00 до 23:00
Скачать .torrent

Для того, чтобы скачать торрент-файл

Сергей и Мария Бондаренко - Видеоуроки по 3D max (2007-2008)

с нашего сайта, Вам необходимо Войти на сайт под своим логином! Если у Вас ещё нет логина, тогда Вам нужно сначала Зарегистрироваться!

Как скачивать? · Что такое торрент? · Рейтинг и ограничения

Показать сообщения:    
Ответить на тему

Сергей и Мария Бондаренко - Видеоуроки по 3D max (2007-2008) скачать торрент (torrent), видеоуроки, тренинги, обучающее видео и видеокурсы

Текущее время: Сегодня 03:22

Часовой пояс: GMT + 4



Вы не можете начинать темы
Вы не можете отвечать на сообщения
Вы не можете редактировать свои сообщения
Вы не можете удалять свои сообщения
Вы не можете голосовать в опросах
Вы не можете прикреплять файлы к сообщениям
Вы не можете скачивать файлы