Последнее из V.I.P.-раздела

03-Дек-19 09:59
03-Дек-19 09:57
03-Дек-19 09:55
03-Дек-19 09:53
03-Дек-19 09:49
03-Дек-19 09:48
03-Дек-19 09:46
03-Дек-19 09:44
03-Дек-19 09:37
03-Дек-19 09:36

Школа Программирования - HTML и CSS. Основы создания сайтов (2012)

Ответить на тему
 
Автор Сообщение

Yulya ®

-Школа Программирования - HTML и CSS. Основы создания сайтов (2012)- Автор (режиссер): Школа Программирования
Название: HTML и CSS. Основы создания сайтов
Офсайт курса: Курс
Год выпуска: 2012
Жанр: Веб-разработка
Качество видео: PCRec
Продолжительность: 14:45:22
Видеокодек: AVC
Битрейт видео: ~9.000 fps, 135 Kbps
Размер кадра: 1 024x768
Аудиокодек: AAC
Битрейт аудио: 44.1 KHz, 2 channels, 53.6 Kbps
Описание:
Курс HTML и CSS. Основы создания сайтов - это первая ступень в обучении профессии “Веб-разработчик”, так как без знания этих языков невозможно изучать веб-программирование. Поэтому данный курс рассчитан на людей, которые хотят научиться делать сайты, но не знают, что им для этого необходимо изучать.
Обучение начнется с самых азов, т.е. с небольшой теоретической части, где вы узнаете как работает интернет, познакомитесь с устройством сайта и процессом разработки, установите необходимые программы для того, чтобы можно было начать процесс разработки сайта, затем вы под четким руководством преподавателя шаг за шагом будете разрабатывать свой собственный сайт, который получится хоть и простым, но зато вы преодолеете первую ступень в столь нелегком деле, как разработка сайта.

Содержание

Введение
Как работает интернет
Что такое сайт
Что представляет собой веб-страница
Виды сайтов
Процесс разработки сайта
Что такое гипертекст, теги и атрибуты
Подготовка рабочего места
Простой пример HTML странички
Пример сложной веб-страницы
Горячие клавиши для перемещения по документам
Основы HTML
Структура HTML документа
Основные теги оформления текста
Спецсимволы
Комментарии в HTML
Гиперссылки
Типы изображений для web.
Загрузка изображений на страницу
Списки
Формы и их элементы
Основы CSS
Что такое CSS
Синтаксис CSS
Способы объявления CSS
Селекторы (id, class, tag)
Селекторы атрибутов
Основные свойства стилей
Вложенность, наследование и группирование свойств
Приоритеты применения стилей
Псевдоклассы и псевдоэлементы
Таблицы в HTML и табличная верстка
Создание таблиц
Объединение ячеек
Вложенные таблицы
Стилевое оформление таблиц
Верстка макета сайта при помощи таблиц
Верстка слоями
Основные теги для верстки (div и span)
Отступы элементов (margin и padding)
Обтекаемые элементы
Позиционирование блоков
Верстка макета сайта при помощи слоев
Стандарты Web. Вспомогательные инструменты. Хостинг.
Проблема «кроссбраузерности»
Стандарты HTML/CSS
Будущее за стандартами HTML5 и CSS3
Грамотная, универсальная верстка
Загрузка проектов на сервер

MediaInfo

General
Complete name : F:\Новая папка\курс HTML и CSS (2012г)\урок 1\html_1_1.mp4
Format : MPEG-4
Format profile : Base Media / Version 2
Codec ID : mp42
File size : 76.4 MiB
Duration : 56mn 1s
Overall bit rate : 191 Kbps
Encoded date : UTC 2012-11-20 21:05:25
Tagged date : UTC 2012-11-20 21:05:25
Video
ID : 1
Format : AVC
Format/Info : Advanced Video Codec
Format profile : [url=mailto:High@L4.0]High@L4.0[/url]
Format settings, CABAC : Yes
Format settings, ReFrames : 4 frames
Format settings, GOP : M=1, N=45
Codec ID : avc1
Codec ID/Info : Advanced Video Coding
Duration : 56mn 1s
Source duration : 56mn 1s
Bit rate mode : Variable
Bit rate : 135 Kbps
Width : 1 024 pixels
Height : 768 pixels
Display aspect ratio : 4:3
Frame rate mode : Constant
Frame rate : 9.000 fps
Color space : YUV
Chroma subsampling : 4:2:0
Bit depth : 8 bits
Scan type : Progressive
Bits/(Pixel*Frame) : 0.019
Stream size : 54.2 MiB (71%)
Source stream size : 54.2 MiB (71%)
Language : English
Encoded date : UTC 2012-11-20 21:05:25
Tagged date : UTC 2012-11-20 21:05:25
mdhd_Duration : 3360651
Color primaries : BT.709
Transfer characteristics : BT.709
Matrix coefficients : BT.709
Audio
ID : 2
Format : AAC
Format/Info : Advanced Audio Codec
Format profile : LC
Codec ID : 40
Duration : 56mn 1s
Source duration : 56mn 1s
Bit rate mode : Constant
Bit rate : 53.6 Kbps
Channel(s) : 2 channels
Channel positions : Front: L R
Sampling rate : 44.1 KHz
Compression mode : Lossy
Stream size : 21.5 MiB (28%)
Source stream size : 21.5 MiB (28%)
Language : English
Encoded date : UTC 2012-11-20 21:05:25
Tagged date : UTC 2012-11-20 21:05:25
mdhd_Duration : 3358159
Скриншоты:
Скачать .torrent

Для того, чтобы скачать торрент-файл

Школа Программирования - HTML и CSS. Основы создания сайтов (2012)

с нашего сайта, Вам необходимо Войти на сайт под своим логином! Если у Вас ещё нет логина, тогда Вам нужно сначала Зарегистрироваться!

Как скачивать? · Что такое торрент? · Рейтинг и ограничения

Показать сообщения:    
Ответить на тему

Школа Программирования - HTML и CSS. Основы создания сайтов (2012) скачать торрент (torrent), видеоуроки, тренинги, обучающее видео и видеокурсы

Текущее время: Сегодня 20:52

Часовой пояс: GMT + 4



Вы не можете начинать темы
Вы не можете отвечать на сообщения
Вы не можете редактировать свои сообщения
Вы не можете удалять свои сообщения
Вы не можете голосовать в опросах
Вы не можете прикреплять файлы к сообщениям
Вы не можете скачивать файлы