Видеоурок | Как обойти блокировку сайтов провайдером (2012)

Ответить на тему
 
Автор Сообщение

Yulya ®

-Видеоурок | Как обойти блокировку сайтов провайдером (2012)- Название: Как обойти блокировку сайтов провайдером
Год выпуска: 2012
Жанр: Видеоурок
Качество видео: PCRec
Продолжительность: 00:11:45
Видеокодек: MPEG2
Битрейт видео: ~3029 kbps
Размер кадра: 1280x720
Аудиокодек: MP2
Битрейт аудио: 192 Kbps
Описание:
Российские провайдеры уже блокируют сайты казино, покер-румов и других интернет-ресурсов. Это видео рассказывает, как обойти любую блокировку, получить доступ к сайту.

MediaInfo

Код:
Общее
Полное имя                               : blok_sayt.MPG
Формат                                   : MPEG-PS
Размер файла                             : 276 Мбайт
Продолжительность                        : 11 м.
Режим общего битрейта                    : Переменный
Общий поток                              : 3286 Кбит/сек
Видео
Идентификатор                            : 224 (0xE0)
Формат                                   : MPEG Video
Версия формата                           : Version 2
Профиль формата                          : Main@Main
Параметр BVOP формата                    : Да
Параметр матрицы формата                 : По умолчанию
Параметр GOP формата                     : M=3, N=12
Продолжительность                        : 11 м.
Вид битрейта                             : Переменный
Битрейт                                  : 3029 Кбит/сек
Максимальный битрейт                     : 2519 Мбит/сек
Ширина                                   : 1280 пикселей
Высота                                   : 720 пикселей
Соотношение сторон                       : 16:9
Частота кадров                           : 25,000 кадров/сек
Цветовое пространство                    : YUV
Субдискретизация насыщенности            : 4:2:0
Битовая глубина                          : 8 бит
Тип развёртки                            : Прогрессивная
Метод сжатия                             : С потерями
Бит/(Пиксели*Кадры)                      : 0.131
Размер потока                            : 255 Мбайт (92%)
Аудио
Идентификатор                            : 192 (0xC0)
Формат                                   : MPEG Audio
Версия формата                           : Version 1
Профиль формата                          : Layer 2
Продолжительность                        : 11 м.
Вид битрейта                             : Постоянный
Битрейт                                  : 192 Кбит/сек
Каналы                                   : 2 канала
Частота                                  : 48,0 КГц
Метод сжатия                             : С потерями
Задержка видео                           : 10 мс.
Размер потока                            : 16,2 Мбайт (6%)
Скачать .torrent

Для того, чтобы скачать торрент-файл

Видеоурок | Как обойти блокировку сайтов провайдером (2012)

с нашего сайта, Вам необходимо Войти на сайт под своим логином! Если у Вас ещё нет логина, тогда Вам нужно сначала Зарегистрироваться!

Как скачивать? · Что такое торрент? · Рейтинг и ограничения

Показать сообщения:    
Ответить на тему

Видеоурок | Как обойти блокировку сайтов провайдером (2012) скачать торрент (torrent), видеоуроки, тренинги, обучающее видео и видеокурсы

Текущее время: Сегодня 08:18

Часовой пояс: GMT + 4



Вы не можете начинать темы
Вы не можете отвечать на сообщения
Вы не можете редактировать свои сообщения
Вы не можете удалять свои сообщения
Вы не можете голосовать в опросах
Вы не можете прикреплять файлы к сообщениям
Вы не можете скачивать файлы