Виктор Гавриленко - CMS за 1 день (2013)

Ответить на тему
 
Автор Сообщение

Yulya ®

-Виктор Гавриленко - CMS за 1 день (2013)- Автор: Виктор Гавриленко
Название: CMS за 1 день
Год выпуска: 2013
Жанр: Обучающее видео
Качество видео: PCRec
Продолжительность: 05:05:11
Видеокодек: H264
Битрейт видео: ~218 Кбит/сек
Размер кадра: 1024х768
Аудиокодек: MP3, 2ch
Битрейт аудио: 256 Кбит/сек
Описание:
Вы тоже можете научиться профессионально делать сайты со своей системой управления контентом (CMS), затратив всего лишь 1 день, с помощью 6 практических уроков. Которые покажут Вам практику создания системы управления контентом сайта при помощи объектно-ориентированного программирования на PHP. В данных уроках мы будем заниматься только практикой, то есть с абсолютного нуля создадим систему управления контентом, которая будет включать в себя пользовательскую часть – обычный сайт, и административную панель, позволяющую редактировать контент сайта.

MediaInfo:

Общее
Полное имя : cms за 1 день\Создание логического ядра\cmsooplesson2.avi
Формат : AVI
Формат/Информация : Audio Video Interleave
Размер файла : 184 Мбайт
Продолжительность : 53 м.
Общий поток : 485 Кбит/сек
Программа кодирования : Lavf52.93.0
Видео
Идентификатор : 0
Формат : AVC
Формат/Информация : Advanced Video Codec
Профиль формата : [url=mailto:High@L3.1]High@L3.1[/url]
Параметр CABAC формата : Да
Параметр ReFrames формата : 3 кадра
Идентификатор кодека : H264
Продолжительность : 53 м.
Битрейт : 218 Кбит/сек
Номинальный битрейт : 1643 Кбит/сек
Ширина : 1024 пикселя
Высота : 768 пикселей
Соотношение сторон : 4:3
Режим частоты кадров : Переменный
Частота кадров : 15,000 кадров/сек
Цветовое пространство : YUV
Субдискретизация насыщенности : 4:2:0
Битовая глубина : 8 бит
Тип развёртки : Прогрессивная
Бит/(Пиксели*Кадры) : 0.019
Размер потока : 83,0 Мбайт (45%)
Библиотека кодирования : x264 core 112
Настройки программы : cabac=1 / ref=3 / deblock=1:0:0 / analyse=0x3:0x113 / me=hex / subme=7 / psy=1 / psy_rd=1.00:0.00 / mixed_ref=1 / me_range=16 / chroma_me=1 / trellis=1 / 8x8dct=1 / cqm=0 / deadzone=21,11 / fast_pskip=1 / chroma_qp_offset=-2 / threads=1 / sliced_threads=0 / nr=0 / decimate=1 / interlaced=0 / constrained_intra=0 / bframes=3 / b_pyramid=0 / b_adapt=1 / b_bias=0 / direct=1 / weightb=1 / open_gop=0 / weightp=2 / keyint=250 / keyint_min=25 / scenecut=40 / intra_refresh=0 / rc_lookahead=40 / rc=abr / mbtree=1 / bitrate=1643 / ratetol=1.0 / qcomp=0.60 / qpmin=10 / qpmax=51 / qpstep=4 / ip_ratio=1.41 / aq=1:1.00
Аудио
Идентификатор : 1
Формат : MPEG Audio
Версия формата : Version 1
Профиль формата : Layer 3
Режим : Joint stereo
Расширение режима : MS Stereo
Идентификатор кодека : 55
Идентификатор кодека/Подсказка : MP3
Продолжительность : 53 м.
Вид битрейта : Постоянный
Битрейт : 256 Кбит/сек
Каналы : 2 канала
Частота : 44,1 КГц
Метод сжатия : С потерями
Размер потока : 97,3 Мбайт (53%)
Выравнивание : Соединение по промежуткам
Продолжительность промежутка : 26 мс. (0,39 видеокадр)
Библиотека кодирования : LAME3.98.4

Содержание:

Создание базы данных. Единая точка входа.
По итогам данного урока мы с Вами начнем создавать систему управления контентом при помощи объектно-ориентированного
программирования на языке PHP. Мы создадим и наполним контентом базу данных, создадим конфигурационный файл и определимся с настройками, которые он будет содержать, а также создадим единую точку входа на сайт и определимся с логической схемой работы будущей CMS.
Создание логического ядра пользовательской части CMS.
По итогам данного урока мы создадим основу пользовательской части будущей системы управления контентом — то есть основной класс, в котором содержаться все основные методы и свойства. Вы научитесь разделять шаблоны на статические и динамические блоки, правильно выполнять подключение к базе данных, а также увидите, как лучше всего выводить на экран блоки, которые являются неизменными для всех страниц сайта.
Создание и вывод основных страниц сайта.
По итогам данного урока мы полностью завершим пользовательскую часть создаваемой системы управления контентом, а именно – закончим главную страницу, выведем полный текст каждой записи, реализуем вывод списка статей принадлежащих конкретным категориям, а также создадим страничку для просмотра текста меню.
Вывод главной страницы админки.
По итогам данного урока мы начнем создавать административный раздел сайта, позволяющий редактировать весь контент сайта. Определимся со схемой работы сайта и создадим дополнительный абстрактный класс, выполняющий роль основного логического ядра админки. Также выведем на экран главную страницу административной панели и отобразим на экране форму для добавления новых статей.
Добавление, редактирование и удаление статей.
По итогам данного урока мы реализуем добавление, редактирование и удаление статей. Вы научитесь, собственно, выполнять эти операции, выносить обработчик формы в отдельный метод и вызывать его только при отправке данных формы. Так же сможете реализовать загрузку изображений на сервер, выполнить проверку на заполнение обязательных полей формы, а также выполнять перенаправления на определенную страницу, с выводом сообщения об успешном выполнении операций по добавлению редактированию, или удалению статей.
Редактирование пунктов меню. Авторизация пользователей.
По итогам данного урока мы полностью завершим создание системы управления контентом при помощи объектно-ориентированного программирования на языке PHP. Вы научитесь закрывать доступ для обычных посетителей к определенным страницам сайта, узнаете в каком виде необходимо хранить пароли доступа к админке, а также научитесь создавать несложную систему авторизации пользователей.
Скачать .torrent

Для того, чтобы скачать торрент-файл

Виктор Гавриленко - CMS за 1 день (2013)

с нашего сайта, Вам необходимо Войти на сайт под своим логином! Если у Вас ещё нет логина, тогда Вам нужно сначала Зарегистрироваться!

Как скачивать? · Что такое торрент? · Рейтинг и ограничения

Показать сообщения:    
Ответить на тему

Виктор Гавриленко - CMS за 1 день (2013) скачать торрент (torrent), видеоуроки, тренинги, обучающее видео и видеокурсы

Текущее время: Сегодня 02:40

Часовой пояс: GMT + 4



Вы не можете начинать темы
Вы не можете отвечать на сообщения
Вы не можете редактировать свои сообщения
Вы не можете удалять свои сообщения
Вы не можете голосовать в опросах
Вы не можете прикреплять файлы к сообщениям
Вы не можете скачивать файлы