Последнее из V.I.P.-раздела

03-Дек
03-Дек
03-Дек
03-Дек
03-Дек
03-Дек
03-Дек
03-Дек
03-Дек
03-Дек
03-Дек
03-Дек
03-Дек
03-Дек
03-Дек
03-Дек
03-Дек
03-Дек
03-Дек
03-Дек

Новости о коронавирусе

Emiel Sleegers - Mechanical Assets in 3ds Max Volume 3 (2016)

Ответить на тему
 
Автор Сообщение

Yulya ®

Emiel Sleegers | Mechanical Assets in 3ds Max Volume 3 (2016) PCRec [En, Ru] - Автор: Emiel Sleegers
Производство: 3DMotive
Жанр: Создание видео
Описание:
В этом курсе мы посмотрим, как же создать 3д ассет от начала до конца. Мы сосредоточимся на создание ассетов для игр, научимся тому, как правильно работать с текстурами и оптимизировать топологию. Мы пройдемся по созданию хайполи и лоуполи моделей в 3ds Max и затем научимся создавать развертку для нашей лоуполи модели, а так же будем готовить её к запеканию карты нормалей и АО. Мы затем все экспортируем из 3ds Max и займемся запеканием текстур в XNormal. Мы поговорим о наилучших настройках для минимизации ошибок во время запекания. Поговорим о появляющихся ошибках и о том, как их можно решить. Как только все наши текстуры готовы, мы перейдем в Substance Painter, где займемся текстурированием модели. Там мы поговорим о том, как использовать материалы, заполнять слои, использовать генераторы, а так же обсудим другие техники для создания финальной версии текстур для нашей модели. После этого мы перенесем все в Marmoset Toolbag, где срендерим нашу модель и создадим красивый кадр.
Продолжительность: 01:56:00
Качество видео: PCRec
Язык озвучки: Английский Русский
Видео: AVC/H.264, 1280x720, ~3059 kbps
Аудио: AAC, 2 ch, 93 kbps
Аудио 2: MP3, 2 ch, 112 kbps (отдельным файлом)

MediaInfo:

General
Complete name : J:\3DMotive - Mechanical Asset In 3ds Max Volume 3 [ENG-RUS]\01-Introduction.mp4
Format : MPEG-4
Format profile : Base Media
Codec ID : isom (isom/iso2/avc1/mp41)
File size : 30.0 MiB
Duration : 1 min 19 s
Overall bit rate : 3 160 kb/s
Writing application : Lavf56.15.104
Video
ID : 1
Format : AVC
Format/Info : Advanced Video Codec
Format profile : Baseline@L3.1
Format settings : 3 Ref Frames
Format settings, CABAC : No
Format settings, Reference fra : 3 frames
Codec ID : avc1
Codec ID/Info : Advanced Video Coding
Duration : 1 min 19 s
Bit rate : 3 060 kb/s
Width : 1 280 pixels
Height : 720 pixels
Display aspect ratio : 16:9
Frame rate mode : Variable
Frame rate : 30.000 FPS
Minimum frame rate : 29.412 FPS
Maximum frame rate : 30.303 FPS
Standard : NTSC
Color space : YUV
Chroma subsampling : 4:2:0
Bit depth : 8 bits
Scan type : Progressive
Bits/(Pixel*Frame) : 0.111
Stream size : 29.0 MiB (97%)
Color range : Limited
Codec configuration box : avcC
Audio
ID : 2
Format : AAC LC
Format/Info : Advanced Audio Codec Low Complexity
Codec ID : mp4a-40-2
Duration : 1 min 19 s
Bit rate mode : Constant
Bit rate : 93.6 kb/s
Channel(s) : 2 channels
Channel layout : L R
Sampling rate : 44.1 kHz
Frame rate : 43.066 FPS (1024 SPF)
Compression mode : Lossy
Stream size : 910 KiB (3%)
Default : Yes
Alternate group : 1

Дополнительная информация:

Программное обеспечение: 3Ds Max, Pixologic ZBrush
Файлы примеров: присутствуют

Содержание:

Глава 1 - Введение
Глава 2 - Подготовка модели к запеканию
Глава 3 - Запекание текстур
Глава 4 - Работа над нормалями в Substance Painter
Глава 5 - Работа над базовым цветом и следами грязи
Глава 6 - Наложение маленьких деталей
Глава 7 - Завершение работы над текстурами и позирование модели
Глава 8 - Добавление финальных деталей
Скриншоты:
Скачать .torrent

Для того, чтобы скачать торрент-файл

Emiel Sleegers - Mechanical Assets in 3ds Max Volume 3 (2016)

с нашего сайта, Вам необходимо Войти на сайт под своим логином! Если у Вас ещё нет логина, тогда Вам нужно сначала Зарегистрироваться!

Как скачивать? · Что такое торрент? · Рейтинг и ограничения

Показать сообщения:    
Ответить на тему

Emiel Sleegers - Mechanical Assets in 3ds Max Volume 3 (2016) скачать торрент (torrent), видеоуроки, тренинги, обучающее видео и видеокурсы

Текущее время: Сегодня 11:51

Часовой пояс: GMT + 4



Вы не можете начинать темы
Вы не можете отвечать на сообщения
Вы не можете редактировать свои сообщения
Вы не можете удалять свои сообщения
Вы не можете голосовать в опросах
Вы не можете прикреплять файлы к сообщениям
Вы не можете скачивать файлы