Последнее из V.I.P.-раздела

05-Дек
05-Дек
05-Дек
05-Дек
05-Дек
05-Дек
05-Дек
05-Дек
05-Дек
05-Дек
05-Дек
05-Дек
05-Дек
05-Дек
05-Дек
05-Дек
05-Дек
05-Дек
05-Дек
05-Дек

Новости о коронавирусе

Специалист - Java. Уровень 1. Язык программирования Java (2020)

Ответить на тему
 
Автор Сообщение

Yulya ®

Специалист | Java. Уровень 1. Язык программирования Java (2020) PCRec - Автор: Специалист
Жанр: Программирование
Описание:
Java - самый популярный объектно-ориентированный язык программирования. Java используется для создания серверного программного обеспечения, прикладных программ, разработки веб-сайтов, игр и т.д. Созданные на языке Java приложения могут успешно работать на любом компьютере независимо от его архитектуры.
Базовый синтаксис языка Java взят от Си/С++, а значит, курс подойдет новичкам или опытным программистам, желающим повысить свой уровень квалификации.
Курс не только дает фундаментальные основы, но и готовит к последующей серьезной работе на Java. Вы подробно разберете все элементы и конструкции языка Java SE 13 и возможности платформы JDK. Теория детально отрабатывается на практике. Обучение проводят высококвалифицированные преподаватели-практики, которые работают как с Java SE, так и с современными инструментальными средствами разработки ПО.
Если вы нацелены на карьерный рост и хотите стать высокооплачиваемым программистом Java, этот курс для вас!

Продолжение описания:

Последовательно пройдя первый и второй уровни курса по Java SE, вы получите максимум информации для сдачи экзамена Oracle Certified Associate, Java SE Programmer.
Программа курса соответствует требованиям профессионального стандарта «Программист».
Цель курса:
Овладеть объектно-ориентированным языком программирования Java Standard Edition 13 (Java SE13), научиться использовать интегрированную среду разработки и приобрести базовые навыки создания объектно-ориентированных приложений.
Продолжительность: 23:27:25
Качество видео: PCRec
Видео: AVC/H.264, 1280x720, ~41,3 Kbps
Аудио: AC3, 2 ch, 56 Kbps

MediaInfo:

Общее
Полное имя : D:\nnm\[specialist] Java. Уровень 1. Язык программирования Java (2020)\1_1.mp4
Формат : MPEG-4
Профиль формата : Base Media
Идентификатор кодека : isom (isom/avc1/iso6)
Размер файла : 121 Мбайт
Продолжительность : 2 ч. 50 м.
Режим общего битрейта : Переменный
Общий поток : 99,3 Кбит/сек
Дата кодирования : UTC 2020-04-13 13:44:33
Дата пометки : UTC 2020-04-13 13:44:33
Видео
Идентификатор : 1
Формат : AVC
Формат/Информация : Advanced Video Codec
Профиль формата : High@L3.1
Настройки формата : CABAC / 4 Ref Frames
Параметр CABAC формата : Да
Параметр RefFrames формата : 4 кадра
Идентификатор кодека : avc1
Идентификатор кодека/Информация : Advanced Video Coding
Продолжительность : 2 ч. 50 м.
Битрейт : 41,3 Кбит/сек
Номинальный битрейт : 96,0 Кбит/сек
Максимальный битрейт : 7 543 Кбит/сек
Ширина : 1 280 пикселей
Высота : 720 пикселей
Соотношение сторон : 16:9
Режим частоты кадров : Постоянный
Частота кадров : 10,000 кадров/сек
Цветовое пространство : YUV
Субдискретизация насыщенности : 4:2:0
Битовая глубина : 8 бит
Тип развёртки : Прогрессивная
Бит/(Пиксели*Кадры) : 0.004
Размер потока : 50,3 Мбайт (42%)
Заголовок : 264@GPAC0.5.2-DEV-rev248-g39d5978-master
Библиотека кодирования : x264 core 146 r2538 121396c
Настройки программы : cabac=1 / ref=3 / deblock=1:0:0 / analyse=0x3:0 / me=dia / subme=1 / psy=1 / psy_rd=1.00:0.00 / mixed_ref=0 / me_range=16 / chroma_me=1 / trellis=1 / 8x8dct=1 / cqm=0 / deadzone=21,11 / fast_pskip=1 / chroma_qp_offset=0 / threads=6 / lookahead_threads=1 / sliced_threads=0 / nr=0 / decimate=1 / interlaced=0 / bluray_compat=0 / constrained_intra=0 / bframes=3 / b_pyramid=2 / b_adapt=1 / b_bias=0 / direct=3 / weightb=1 / open_gop=0 / weightp=2 / keyint=250 / keyint_min=10 / scenecut=40 / intra_refresh=0 / rc_lookahead=40 / rc=2pass / mbtree=1 / bitrate=96 / ratetol=1.0 / qcomp=0.60 / qpmin=0 / qpmax=69 / qpstep=4 / cplxblur=20.0 / qblur=0.5 / ip_ratio=1.40 / aq=1:1.00
Дата кодирования : UTC 2020-04-13 13:44:33
Дата пометки : UTC 2020-04-13 13:44:36
Codec configuration box : avcC
Аудио
Идентификатор : 2
Формат : AAC LC SBR
Формат/Информация : Advanced Audio Codec Low Complexity with Spectral Band Replication
Коммерческое название : HE-AAC
Настройки формата : Explicit
Идентификатор кодека : mp4a-40-2
Продолжительность : 2 ч. 50 м.
Вид битрейта : Переменный
Битрейт : 56,0 Кбит/сек
Максимальный битрейт : 59,8 Кбит/сек
Каналы : 2 канала
Channel layout : L R
Частота : 44,1 КГц
Частота кадров : 21,533 кадра/сек (2048 SPF)
Метод сжатия : С потерями
Размер потока : 68,2 Мбайт (56%)
Дата кодирования : UTC 2020-04-13 12:34:20
Дата пометки : UTC 2020-04-13 13:44:36
Скриншоты:
Скачать .torrent

Для того, чтобы скачать торрент-файл

Специалист - Java. Уровень 1. Язык программирования Java (2020)

с нашего сайта, Вам необходимо Войти на сайт под своим логином! Если у Вас ещё нет логина, тогда Вам нужно сначала Зарегистрироваться!

Как скачивать? · Что такое торрент? · Рейтинг и ограничения

Показать сообщения:    
Ответить на тему

Специалист - Java. Уровень 1. Язык программирования Java (2020) скачать торрент (torrent), видеоуроки, тренинги, обучающее видео и видеокурсы

Текущее время: Сегодня 08:41

Часовой пояс: GMT + 4



Вы не можете начинать темы
Вы не можете отвечать на сообщения
Вы не можете редактировать свои сообщения
Вы не можете удалять свои сообщения
Вы не можете голосовать в опросах
Вы не можете прикреплять файлы к сообщениям
Вы не можете скачивать файлы