Последнее из V.I.P.-раздела

22-Сен
22-Сен
22-Сен
22-Сен
22-Сен
22-Сен
22-Сен
22-Сен
22-Сен
22-Сен
22-Сен
22-Сен
22-Сен
22-Сен
22-Сен
22-Сен
22-Сен
22-Сен
22-Сен
22-Сен

Новости о коронавирусе

OTUS - Product Manager IT-проектов (2020)

Ответить на тему
 
Автор Сообщение

Yulya ®

OTUS | Product Manager IT-проектов (2020) PCRec - Автор: OTUS
Жанр: Менеджмент
Описание:
Курс разработан совместно с OZON. специально для начинающих Product-manager-ов, программистов, дизайнеров, маркетологов, аналитиков, тестировщиков или стартаперов. Вы получите всю необходимую подготовку для работы Product Manager-ом. В процессе обучения вы создадите свой собственный продукт с командой разработчиков.
Продолжительность: 67:05:23
Качество видео: PCRec
Видео: AVC/H.264, 1440х900, ~234 Kbps
Аудио: AAC, 1 ch, 53,3 Kbps

MediaInfo:

Общее
Полное имя : [OTUS] Product Manager IT-проектов (2020)\1. Продуктовое мышление\Продуктовое мышление.mp4
Формат : MPEG-4
Профиль формата : Base Media / Version 2
Идентификатор кодека : mp42 (isom/mp42)
Размер файла : 228 Мбайт
Продолжительность : 1 ч. 50 м.
Режим общего битрейта : Переменный
Общий поток : 290 Кбит/сек
Дата кодирования : UTC 2019-12-26 18:49:06
Дата пометки : UTC 2019-12-26 18:49:06
Видео
Идентификатор : 2
Формат : AVC
Формат/Информация : Advanced Video Codec
Профиль формата : High@L5
Настройки формата : CABAC / 11 Ref Frames
Параметр CABAC формата : Да
Параметр RefFrames формата : 11 кадров
Идентификатор кодека : avc1
Идентификатор кодека/Информация : Advanced Video Coding
Продолжительность : 1 ч. 50 м.
Битрейт : 234 Кбит/сек
Ширина : 1 440 пикселей
Высота : 900 пикселей
Соотношение сторон : 16:10
Режим частоты кадров : Постоянный
Частота кадров : 25,000 кадров/сек
Цветовое пространство : YUV
Субдискретизация насыщенности : 4:2:0
Битовая глубина : 8 бит
Тип развёртки : Прогрессивная
Бит/(Пиксели*Кадры) : 0.007
Размер потока : 185 Мбайт (81%)
Заголовок : H.264/AVC video
Дата кодирования : UTC 2019-12-26 18:49:06
Дата пометки : UTC 2019-12-26 18:49:06
Codec configuration box : avcC
Аудио
Идентификатор : 1
Формат : AAC LC
Формат/Информация : Advanced Audio Codec Low Complexity
Идентификатор кодека : mp4a-40-2
Продолжительность : 1 ч. 50 м.
Вид битрейта : Переменный
Битрейт : 53,3 Кбит/сек
Максимальный битрейт : 125 Кбит/сек
Каналы : 1 канал
Channel layout : C
Частота : 32,0 КГц
Частота кадров : 31,250 кадров/сек (1024 SPF)
Метод сжатия : С потерями
Размер потока : 42,0 Мбайт (18%)
Заголовок : AAC audio
Дата кодирования : UTC 2019-12-26 18:49:06
Дата пометки : UTC 2019-12-26 18:49:06
Скриншоты:
Скачать .torrent

Для того, чтобы скачать торрент-файл

OTUS - Product Manager IT-проектов (2020)

с нашего сайта, Вам необходимо Войти на сайт под своим логином! Если у Вас ещё нет логина, тогда Вам нужно сначала Зарегистрироваться!

Как скачивать? · Что такое торрент? · Рейтинг и ограничения

Показать сообщения:    
Ответить на тему

OTUS - Product Manager IT-проектов (2020) скачать торрент (torrent), видеоуроки, тренинги, обучающее видео и видеокурсы

Текущее время: Сегодня 08:37

Часовой пояс: GMT + 4



Вы не можете начинать темы
Вы не можете отвечать на сообщения
Вы не можете редактировать свои сообщения
Вы не можете удалять свои сообщения
Вы не можете голосовать в опросах
Вы не можете прикреплять файлы к сообщениям
Вы не можете скачивать файлы