Последнее из V.I.P.-раздела

22-Сен
22-Сен
22-Сен
22-Сен
22-Сен
22-Сен
22-Сен
22-Сен
22-Сен
22-Сен
22-Сен
22-Сен
22-Сен
22-Сен
22-Сен
22-Сен
22-Сен
22-Сен
22-Сен
22-Сен

Новости о коронавирусе

OTUS - Архитектура и шаблоны проектирования [Часть 1-3] (2020)

Ответить на тему
 
Автор Сообщение

Yulya ®

OTUS | Архитектура и шаблоны проектирования [Часть 1-3] (2020) PCRec - Автор: OTUS
Жанр: Программирование
Описание:
Курс для разработчиков, которые хотят изучить основные паттерны проектирования и научиться применять их, находить им замену в сложных ситуациях и научиться мыслить как архитектор программного обеспечения.
Те, кто изучил свой первый язык программирования и сталкивается с решением конкретной задачи.
Обычно первая постановка задачи порождает новые идеи по применению. Что означает доработки, как внутри процесса, так и объединение его с другими или расширение функциональности.
Заранее это неизвестно, однако подготовиться можно, если заранее заложить гибкость и расширяемость посредством использования шаблонов проектирования.
Продолжительность: 36:17:47
Качество видео: PCRec
Видео: AVC/H.264, 1920x1080, ~334 Kbps
Аудио: AAC, 1 ch, 53 Kbps

MediaInfo:

Общее
Полное имя : [OTUS] Архитектура и шаблоны проектирования Часть 1\01.ООП or not ООП\01.ООП or not ООП.mp4
Формат : MPEG-4
Профиль формата : Base Media / Version 2
Идентификатор кодека : mp42 (isom/mp42)
Размер файла : 349 Мбайт
Продолжительность : 2 ч. 5 м.
Режим общего битрейта : Переменный
Общий поток : 389 Кбит/сек
Дата кодирования : UTC 2020-03-25 19:52:39
Дата пометки : UTC 2020-03-25 19:52:39
Видео
Идентификатор : 1
Формат : AVC
Формат/Информация : Advanced Video Codec
Профиль формата : High@L5
Настройки формата : CABAC / 11 Ref Frames
Параметр CABAC формата : Да
Параметр RefFrames формата : 11 кадров
Идентификатор кодека : avc1
Идентификатор кодека/Информация : Advanced Video Coding
Продолжительность : 2 ч. 5 м.
Битрейт : 334 Кбит/сек
Ширина : 1 920 пикселей
Высота : 1 080 пикселей
Соотношение сторон : 16:9
Режим частоты кадров : Постоянный
Частота кадров : 25,000 кадров/сек
Цветовое пространство : YUV
Субдискретизация насыщенности : 4:2:0
Битовая глубина : 8 бит
Тип развёртки : Прогрессивная
Бит/(Пиксели*Кадры) : 0.006
Размер потока : 299 Мбайт (86%)
Заголовок : H.264/AVC video
Дата кодирования : UTC 2020-03-25 19:52:39
Дата пометки : UTC 2020-03-25 19:52:39
Codec configuration box : avcC
Аудио
Идентификатор : 2
Формат : AAC LC
Формат/Информация : Advanced Audio Codec Low Complexity
Идентификатор кодека : mp4a-40-2
Продолжительность : 2 ч. 5 м.
Вид битрейта : Переменный
Битрейт : 53,2 Кбит/сек
Максимальный битрейт : 123 Кбит/сек
Каналы : 1 канал
Channel layout : C
Частота : 32,0 КГц
Частота кадров : 31,250 кадров/сек (1024 SPF)
Метод сжатия : С потерями
Размер потока : 47,7 Мбайт (14%)
Заголовок : AAC audio
Дата кодирования : UTC 2020-03-25 19:52:39
Дата пометки : UTC 2020-03-25 19:52:39

Обновление релиза от 01.08.2020

Добавлена 2 и 3 часть, курс является полным
Скриншоты:
Скачать .torrent

Для того, чтобы скачать торрент-файл

OTUS - Архитектура и шаблоны проектирования [Часть 1-3] (2020)

с нашего сайта, Вам необходимо Войти на сайт под своим логином! Если у Вас ещё нет логина, тогда Вам нужно сначала Зарегистрироваться!

Как скачивать? · Что такое торрент? · Рейтинг и ограничения

Показать сообщения:    
Ответить на тему

OTUS - Архитектура и шаблоны проектирования [Часть 1-3] (2020) скачать торрент (torrent), видеоуроки, тренинги, обучающее видео и видеокурсы

Текущее время: Сегодня 09:11

Часовой пояс: GMT + 4



Вы не можете начинать темы
Вы не можете отвечать на сообщения
Вы не можете редактировать свои сообщения
Вы не можете удалять свои сообщения
Вы не можете голосовать в опросах
Вы не можете прикреплять файлы к сообщениям
Вы не можете скачивать файлы