Последнее из V.I.P.-раздела

22-Сен
22-Сен
22-Сен
22-Сен
22-Сен
22-Сен
22-Сен
22-Сен
22-Сен
22-Сен
22-Сен
22-Сен
22-Сен
22-Сен
22-Сен
22-Сен
22-Сен
22-Сен
22-Сен
22-Сен

Новости о коронавирусе

[Skillbox] Дмитрий Барабаш - Профессия 1C-разработчик (2019)

Ответить на тему
 
Автор Сообщение

Yulya ®

[Skillbox] Дмитрий Барабаш | Профессия 1C-разработчик (2019) PCRec - Автор: Дмитрий Барабаш
Производство: Skillbox
Жанр: 1С, программирование
Описание: Кому подойдёт этот курс:
Новичкам. На практике научитесь программировать и работать с конфигурацией системы «1С:Предприятие 8». Сможете дорабатывать реальные учётные механизмы. Подготовитесь к сдаче экзамена «1С:Профессионал» и сможете найти работу программистом 1С.
Пользователям системы 1С. Научитесь самостоятельно дорабатывать конфигурацию под нужные требования. Сможете составлять ТЗ в терминах 1С, дорабатывать отчёты и объекты индивидуальной настройки.
Практикующим программистам. В процессе обучения вы узнаете об особенностях 1С-разработки в команде, освоите механизмы интеграции 1С с другими системами.
Продолжительность: 22:35:40
Качество видео: PCRec
Видео: HEVC/H.265, 1920x1080, ~734 Kbps
Аудио: AAC, 2 ch, 132 Kbps

MediaInfo:

Format                         : MPEG-4
Format profile : Base Media / Version 2
Codec ID : mp42 (isom/iso2/mp41)
File size : 55.3 MiB
Duration : 8 min 50 s
Overall bit rate : 874 kb/s
Encoded date : UTC 2020-05-05 20:32:33
Tagged date : UTC 2020-05-05 20:32:33
Writing application : HandBrake 1.3.2 2020050300
Video
ID : 1
Format : HEVC
Format/Info : High Efficiency Video Coding
Format profile : Main@L4@Main
Codec ID : hvc1
Codec ID/Info : High Efficiency Video Coding
Duration : 8 min 50 s
Bit rate : 734 kb/s
Width : 1 920 pixels
Height : 1 080 pixels
Display aspect ratio : 16:9
Frame rate mode : Constant
Frame rate : 30.000 FPS
Color space : YUV
Chroma subsampling : 4:2:0
Bit depth : 8 bits
Bits/(Pixel*Frame) : 0.012
Stream size : 46.5 MiB (84%)
Encoded date : UTC 2020-05-05 20:32:33
Tagged date : UTC 2020-05-05 20:32:33
Color range : Limited
Color primaries : BT.709
Transfer characteristics : BT.709
Matrix coefficients : BT.601
Codec configuration box : hvcC
Audio
ID : 2
Format : AAC LC
Format/Info : Advanced Audio Codec Low Complexity
Codec ID : mp4a-40-2
Duration : 8 min 50 s
Bit rate mode : Constant
Bit rate : 132 kb/s
Channel(s) : 2 channels
Channel layout : L R
Sampling rate : 44.1 kHz
Frame rate : 43.066 FPS (1024 SPF)
Compression mode : Lossy
Stream size : 8.38 MiB (15%)
Title : Stereo
Language : English
Default : Yes
Alternate group : 1
Encoded date : UTC 2020-05-05 20:32:33
Tagged date : UTC 2020-05-05 20:32:33

Подробнее о курсе:

Чему вы научитесь:
Автоматизировать бизнес-процессы
Разрабатывать системы учёта
Создавать и дорабатывать функционал
Настраивать отчёты для руководства
Проектировать архитектуру баз данных
Интегрировать 1С с другими системами
Программа курса:
Обзор системы «1С:Предприятие»
Подсистемы и справочные объекты
Документы
Регистры
Отчеты
Объекты индивидуальной настройки
Работа с кодом и написание обработок
Механизмы интеграции
Доработка конфигураций 1С
Составление ТЗ в терминах 1С
Язык запросов 1С
Особенности 1С-разработки в команде
Язык запросов SQL
Программная работа с типами данных и объектами
Регистры бухгалтерии
Регистры расчёта
Решение типовых задач
1С-сертификации
Дополнительные задачи
Дополнительно:
Миникурс «Основы SQL»
SQL. Введение
Структура БД, запрос DESCRIBE
Выбор и фильтрация данных, запрос SELECT
Функции и выражения, агрегация данных
Отношения и соединение таблиц: JOIN
Группировка
Модификация данных
Подзапросы
Объявление и изменение структуры данных

Дополнительная информация:

В раздаче находятся zip архивы с дополнительными материалами
Скриншоты:
Скачать .torrent

Для того, чтобы скачать торрент-файл

[Skillbox] Дмитрий Барабаш - Профессия 1C-разработчик (2019)

с нашего сайта, Вам необходимо Войти на сайт под своим логином! Если у Вас ещё нет логина, тогда Вам нужно сначала Зарегистрироваться!

Как скачивать? · Что такое торрент? · Рейтинг и ограничения

Показать сообщения:    
Ответить на тему

[Skillbox] Дмитрий Барабаш - Профессия 1C-разработчик (2019) скачать торрент (torrent), видеоуроки, тренинги, обучающее видео и видеокурсы

Текущее время: Сегодня 09:30

Часовой пояс: GMT + 4



Вы не можете начинать темы
Вы не можете отвечать на сообщения
Вы не можете редактировать свои сообщения
Вы не можете удалять свои сообщения
Вы не можете голосовать в опросах
Вы не можете прикреплять файлы к сообщениям
Вы не можете скачивать файлы