Последнее из V.I.P.-раздела

22-Сен
22-Сен
22-Сен
22-Сен
22-Сен
22-Сен
22-Сен
22-Сен
22-Сен
22-Сен
22-Сен
22-Сен
22-Сен
22-Сен
22-Сен
22-Сен
22-Сен
22-Сен
22-Сен
22-Сен

Новости о коронавирусе

OTUS - PostgreSQL (2020)

Ответить на тему
 
Автор Сообщение

Yulya ®

OTUS | PostgreSQL (2020) PCRec - Автор: OTUS
Жанр: Базы данных
Описание:
Полный курс по работе с базой данных PostgreSQL. Курс включает в себя все инструменты, которые могут пригодиться как разработчику, так и администратору: управление доступом, резервное копирование, репликация, журналирование, работа со статистикой, способы масштабирование, а также работа PostgreSQL в облаках (AWS, GCP, Azure) и в Kubernetes
Курс обеспечивает глубокое погружение в PostgreSQL, чтобы проектировать базы данных так, чтобы впоследствии не приходилось тушить пожары в результате не оптимально заложенных основ.
Продолжительность: 40:54:55
Качество видео: PCRec
Видео: AVC/H.264, 1680x1050, ~75,4 Kbps
Аудио: AAC, 1 ch, 53,4 Kbps

MediaInfo:

Общее
Полное имя : [OTUS] PostgreSQL (2020)\1. Реляционные базы, история и место в современном мире\Реляционные базы, история и место в современном мире.mp4
Формат : MPEG-4
Профиль формата : Base Media / Version 2
Идентификатор кодека : mp42 (isom/mp42)
Размер файла : 84,0 Мбайт
Продолжительность : 1 ч. 29 м.
Режим общего битрейта : Переменный
Общий поток : 131 Кбит/сек
Дата кодирования : UTC 2019-12-24 01:40:49
Дата пометки : UTC 2019-12-24 01:40:49
Видео
Идентификатор : 2
Формат : AVC
Формат/Информация : Advanced Video Codec
Профиль формата : High@L5
Настройки формата : CABAC / 11 Ref Frames
Параметр CABAC формата : Да
Параметр RefFrames формата : 11 кадров
Идентификатор кодека : avc1
Идентификатор кодека/Информация : Advanced Video Coding
Продолжительность : 1 ч. 29 м.
Битрейт : 75,4 Кбит/сек
Ширина : 1 680 пикселей
Высота : 1 050 пикселей
Соотношение сторон : 16:10
Режим частоты кадров : Постоянный
Частота кадров : 25,000 кадров/сек
Цветовое пространство : YUV
Субдискретизация насыщенности : 4:2:0
Битовая глубина : 8 бит
Тип развёртки : Прогрессивная
Бит/(Пиксели*Кадры) : 0.002
Размер потока : 48,4 Мбайт (58%)
Заголовок : H.264/AVC video
Дата кодирования : UTC 2019-12-24 01:40:49
Дата пометки : UTC 2019-12-24 01:40:49
Codec configuration box : avcC
Аудио
Идентификатор : 1
Формат : AAC LC
Формат/Информация : Advanced Audio Codec Low Complexity
Идентификатор кодека : mp4a-40-2
Продолжительность : 1 ч. 29 м.
Вид битрейта : Переменный
Битрейт : 53,4 Кбит/сек
Максимальный битрейт : 121 Кбит/сек
Каналы : 1 канал
Channel layout : C
Частота : 32,0 КГц
Частота кадров : 31,250 кадров/сек (1024 SPF)
Метод сжатия : С потерями
Размер потока : 34,3 Мбайт (41%)
Заголовок : AAC audio
Дата кодирования : UTC 2019-12-24 01:40:49
Дата пометки : UTC 2019-12-24 01:40:49

Дополнительная информация:

В раздаче находятся zip архивы с дополнительные материалами
Скриншоты:
Скачать .torrent

Для того, чтобы скачать торрент-файл

OTUS - PostgreSQL (2020)

с нашего сайта, Вам необходимо Войти на сайт под своим логином! Если у Вас ещё нет логина, тогда Вам нужно сначала Зарегистрироваться!

Как скачивать? · Что такое торрент? · Рейтинг и ограничения

Показать сообщения:    
Ответить на тему

OTUS - PostgreSQL (2020) скачать торрент (torrent), видеоуроки, тренинги, обучающее видео и видеокурсы

Текущее время: Сегодня 09:48

Часовой пояс: GMT + 4



Вы не можете начинать темы
Вы не можете отвечать на сообщения
Вы не можете редактировать свои сообщения
Вы не можете удалять свои сообщения
Вы не можете голосовать в опросах
Вы не можете прикреплять файлы к сообщениям
Вы не можете скачивать файлы