Евгения Фатеева - Цвет в фотографии (2018)

Ответить на тему
 
Автор Сообщение

Yulya ®

Евгения Фатеева | Цвет в фотографии (2018) HDRip - Автор (режиссер): Евгения Фатеева
Производство: jenytalk.ru, Coler.by
Жанр: Обучающее видео, колористика
Описание:
Занятия для фотографов и ретушеров, которым пока трудно работать с цветом, а также для тех, кто хотел бы сделать свою работу с цветом более осмысленной, вдохновиться и получить новые приемы работы.
Курс рассчитан на 8 недель, состоит из 8 трансляций. Продолжительность занятий 2-2,5 часа. Каждое занятие поделено на две части: теорию и практику. В теоретическую часть входит разбор общих вопросов колористки, цветовых композиций, анализ фотографий и картин разных авторов. В практической части полученные в теории знания переносятся на конкретные снимки с созданием нужного цвета, шаг за шагом изучая технические моменты.
Необходимый минимальный уровень владения программой Photoshop - начальный и выше.
Продолжительность: 27:37:42
Качество видео: HDRip
Видео: AVC/H.264, 1280*720, ~250 Kbps
Аудио: AAC, 2 ch, 126 Kbps

MediaInfo:

Format                      : MPEG-4
Format profile : Base Media / Version 2
Codec ID : mp42 (isom/mp42)
File size : 338 MiB
Duration : 2 h 49 min
Overall bit rate mode : Variable
Overall bit rate : 279 kb/s
Encoded date : UTC 2018-03-25 16:03:37
Tagged date : UTC 2018-03-25 16:03:37
gsst : 0
gstd : 10163815
Video
ID : 1
Format : AVC
Format/Info : Advanced Video Codec
Format profile : Main@L3.1
Format settings : CABAC / 3 Ref Frames
Format settings, CABAC : Yes
Format settings, ReFrames : 3 frames
Codec ID : avc1
Codec ID/Info : Advanced Video Coding
Duration : 2 h 49 min
Bit rate : 149 kb/s
Width : 1 280 pixels
Height : 720 pixels
Display aspect ratio : 16:9
Frame rate mode : Constant
Frame rate : 30.000 FPS
Color space : YUV
Chroma subsampling : 4:2:0
Bit depth : 8 bits
Scan type : Progressive
Bits/(Pixel*Frame) : 0.005
Stream size : 181 MiB (54%)
Title : ISO Media file produced by Google Inc. Created on: 03/25/2018.
Encoded date : UTC 2018-03-25 16:03:37
Tagged date : UTC 2018-03-25 16:03:37
Color range : Limited
Color primaries : BT.709
Transfer characteristics : BT.709
Matrix coefficients : BT.709
Codec configuration box : avcC
Audio
ID : 2
Format : AAC LC
Format/Info : Advanced Audio Codec Low Complexity
Codec ID : mp4a-40-2
Duration : 2 h 49 min
Bit rate mode : Variable
Bit rate : 126 kb/s
Channel(s) : 2 channels
Channel layout : L R
Sampling rate : 44.1 kHz
Frame rate : 43.066 FPS (1024 SPF)
Compression mode : Lossy
Stream size : 152 MiB (45%)
Title : ISO Media file produced by Google Inc. Created on: 03/25/2018.
Encoded date : UTC 2018-03-25 16:03:37
Tagged date : UTC 2018-03-25 16:03:37

Дополнительная информация:

Евгения Фатеева: преподаватель и автор курса
Ретушер (12 лет)
Преподаватель (6 лет)
Творческий фотограф
Психолог (по образованию)
Клиенты: Huawei Беларусь, МТС, Life, Белгосстрах, Alfa-банк, журнал "Большой", журнал "Fashion collection", журнал "Timer", журнал "Имена", White sqare, Internation advertising festival, Ziko, Alutech
ПРОГРАММА КУРСА:
Занятие 1. Цветокоррекция.
Настройка и проверка монитора, советы по выбору и калибровке
Баланс белого, способы добиться нейтральности
Гистограмма и экспозиция
Кривая и контраст
Динамический диапазон и способы его коррекции
Профили камеры, битность, цветовые пространства
Занятие 2. Типы гармонизации разрозненных цветов, типы контраста.
«Лишние» цвета и оттенки
Карта насыщенности
Гармонизация насыщенности
Общие принципы построения цветовой композиции
Способы и методы тонирования, техническая часть
Регулировка плотности и насыщенности
Способы выделить главное в снимке
Занятие 3. Одноцветная композиция.
Характеристики отдельных цветов: температура, вектор движения, символика, анализ
Использование одноцветной композиции
Принципы работы с фотографией при построении одноцветной композиции
Занятие 4. Двухцветная композиция.
Физиологический аспект полярной гармонии
Цветовые круги, их виды
Цветовой круг Иттена
Использование двухцветной полярной композиции
Двухцветная неполярная композиция
Принципы работы с фотографией при построении двухцветной композиции
Усложненные методики тонирования
Занятие 5. Выделение главного.
Углубленная работа с контрастом
Композиция светотональных переходов
Настроение и композиция градиентов
Тональная и воздушная перспектива
Объем и пространство в изображении
Цветовая и контрастная работа с каналами
Занятие 6. LAB.
Занятие 7. Цвет кожи.
Опорные значение при работе с кожей
Цветовые вариации на лице: плохо или хорошо?
Объем в портрете
Способы работы с кожей в Camera Calibration
Проявка фактуры и веснушек
Тонировки для кожи
Занятие 8. Работа с серией. Работа по референсу.
Занятие 9. Трехцветная, многоцветная композиция.
Принципы построения трехцветных и многоцветных композиций
Принцип построение дисгармонии, области применения
Принцип построения пестроты, области применения
Способы гармонизации многоцветных снимков
Занятие 10. Подготовка в печать. Создание пресетов. Равномерность снимков в серии.
Однородность цвета в серии кадров
Подгонка размера для печати
Резкость для печати
Контроль контраста
Перевод в CMYK и сохранение
Виды печати и их особенности
Принцип создания пресетов в Lightroom и Camera Raw
Принцип создания пресетов в Photoshop
БОНУС! Записи стримов и дополнительные уроки.
1. Стрим с проектами Е.Фатеевой. Некоторые ретушерские проекты в формате до-после.
2. Стримы с вопросами студентов.
3. Творческий путь.
4. Мониторы и калибровка. Стрим с представителями сервиса калибровки Coler.by
5. Подготовка в печать, пример обработки свадебной фотографии.
Скриншоты:
Скачать .torrent

Для того, чтобы скачать торрент-файл

Евгения Фатеева - Цвет в фотографии (2018)

с нашего сайта, Вам необходимо Войти на сайт под своим логином! Если у Вас ещё нет логина, тогда Вам нужно сначала Зарегистрироваться!

Как скачивать? · Что такое торрент? · Рейтинг и ограничения

Показать сообщения:    
Ответить на тему

Евгения Фатеева - Цвет в фотографии (2018) скачать торрент (torrent), видеоуроки, тренинги, обучающее видео и видеокурсы

Текущее время: Сегодня 00:36

Часовой пояс: GMT + 4



Вы не можете начинать темы
Вы не можете отвечать на сообщения
Вы не можете редактировать свои сообщения
Вы не можете удалять свои сообщения
Вы не можете голосовать в опросах
Вы не можете прикреплять файлы к сообщениям
Вы не можете скачивать файлы